<svg xmlns="http://www.w3.org/2000/svg"><defs><font id="Lato" horiz-adv-x="1042"><font-face font-family="Lato" units-per-em="2000" panose-1="2 15 5 2 2 2 4 3 2 3" ascent="1974" descent="-426" alphabetic="0"/><glyph glyph-name="space" horiz-adv-x="386"/><glyph unicode="!" glyph-name="exclam" horiz-adv-x="686" d="M430 1433V861q0-45-1-88t-5-86-7-89-11-98H285q-6 52-10 97t-8 89-4 87-2 88v572h169ZM218 110q0 26 9 49t26 40 40 27 49 10q26 0 49-10t40-27 26-40 10-49q0-27-9-49t-27-40-40-26-49-10q-26 0-49 9t-39 27-26 39-10 50Z"/><glyph unicode="&quot;" glyph-name="quotedbl" horiz-adv-x="794" d="M307 1433v-290l-16-155q-3-32-17-49t-45-18q-26 0-40 17t-21 50l-16 155v290h155Zm333 0v-290l-16-155q-3-32-17-49t-45-18q-26 0-40 17t-21 50l-16 155v290h155Z"/><glyph unicode="#" glyph-name="numbersign" horiz-adv-x="1160" d="M790 423 706 0h-81q-23 0-39 17t-16 44v7q0 3 2 9l71 346H396L325 68q-8-37-30-52T243 0h-79l85 423H103q-23 0-36 11t-13 40v11q0 6 2 12l8 57h204l65 326H101l13 74q5 29 23 43t57 14h158l72 358q6 30 27 47t52 17h80l-84-422h247l84 422h79q25 0 41-15t17-39q0-8-1-13l-73-355h212l-13-75q-5-29-23-42t-57-14H874l-65-326h179q24 0 37-11t13-41v-10q0-5-2-12l-9-57H790ZM415 554h247l65 326H480l-65-326Z"/><glyph unicode="$" glyph-name="dollar" horiz-adv-x="1160" d="M498-12Q377-1 278 47T106 171l53 82q7 11 20 18t27 7q19 0 43-19t59-43 83-48 117-31l37 531q-70 21-137 47t-121 69-86 107-33 162q0 73 28 142t83 124 135 88 184 39l10 144q2 19 15 34t35 15h66l-14-198q105-13 181-54t136-99l-43-66q-20-30-46-30-14 0-34 12t-50 29-67 33-87 24l-33-484q72-22 142-48t126-67 90-102 35-154q0-90-30-169t-87-139-141-97-191-44l-12-176q-2-19-15-33t-35-15h-66l15 226Zm393 419q0 50-18 86t-51 62-75 45-92 35l-34-498q65 6 115 28t85 58 52 81 18 103Zm-555 664q0-48 17-83t47-63 70-47 87-36l30 451q-65-6-112-26t-78-50-46-67-15-79Z"/><glyph unicode="%" glyph-name="percent" horiz-adv-x="1572" d="M707 1087q0-84-26-150t-69-112-102-70-121-24q-68 0-125 24t-101 69-67 112-24 151q0 86 24 153t67 113 100 70 126 24q67 0 125-24t101-70 67-113 25-153Zm-139 0q0 66-14 112t-38 75-57 43-70 13q-37 0-69-13t-57-42-37-76-14-112q0-65 13-110t38-74 56-41 70-13q37 0 69 12t57 41 39 74 14 111Zm640 310q13 17 27 26t39 10h128L355 29q-10-13-24-21t-33-8H166l1042 1397Zm291-1059q0-84-26-150t-69-111-101-70-121-24q-68 0-125 24T956 76t-67 112-24 150q0 86 24 153t67 114 100 70 126 24q67 0 125-24t101-70 67-113 24-154Zm-138 0q0 66-14 112t-38 76-57 42-70 13q-37 0-69-13t-57-42-37-75-14-113q0-65 13-110t38-73 56-41 70-13q37 0 69 12t57 41 39 74 14 110Z"/><glyph unicode="&amp;" glyph-name="ampersand" horiz-adv-x="1406" d="M660 1449q79 0 144-25t112-68 75-97 32-116l-111-22q-5-1-9-1-13 0-24 7t-17 25q-7 26-22 54t-40 51-59 38-81 15q-50 0-90-16t-68-44-44-67-16-84q0-35 8-67t26-64 44-67 65-73l412-419q38 67 60 140t31 148q2 19 12 30t28 11h110q-2-115-37-226t-101-208L1400 0h-172q-29 0-47 7t-40 29L997 181Q903 90 781 37T511-16q-80 0-157 27T217 89t-98 126-37 167q0 70 23 132t65 116 99 95 125 72q-61 77-90 150t-29 151q0 73 26 137t77 111 121 75 161 28ZM263 396q0-65 24-114t63-84 89-51 102-18q112 0 201 41t157 109L476 706q-106-57-159-136t-54-174Z"/><glyph unicode="'" glyph-name="quotesingle" horiz-adv-x="460" d="M307 1433v-290l-16-155q-3-32-17-49t-45-18q-26 0-40 17t-21 50l-16 155v290h155Z"/><glyph unicode="(" glyph-name="parenleft" horiz-adv-x="600" d="M289 629q0-214 55-415t159-385q6-11 8-19t2-16q0-14-7-23t-18-16l-79-48Q334-178 282-65t-85 227-48 229-15 238q0 121 15 237t47 229 85 227 128 229l79-49q11-7 18-16t7-23q0-15-10-34-105-182-159-384t-55-416Z"/><glyph unicode=")" glyph-name="parenright" horiz-adv-x="600" d="M298 629q0 214-54 416T84 1429q-10 19-10 34 0 14 7 23t18 16l79 49q75-116 127-229t85-226 48-230 15-237q0-122-15-237t-47-230-85-227-128-228l-79 48q-11 7-18 16t-7 23q0 8 2 16t8 19Q188 12 243 213t55 416Z"/><glyph unicode="*" glyph-name="asterisk" horiz-adv-x="800" d="M354 863v197q0 19 2 36t10 33q-20-25-53-45l-172-99-44 75 172 100q36 21 73 24-20 2-37 7t-36 18L96 1310l44 75 173-100q35-20 57-52-9 18-12 36t-4 39v198h88v-197q0-41-14-72 11 15 24 26t31 22l172 99 44-75-172-100q-17-11-33-17t-35-8q18-2 34-7t34-17l173-101-44-75-173 100q-18 11-32 22t-25 27q16-33 16-72V863h-88Z"/><glyph unicode="+" glyph-name="plus" horiz-adv-x="1160" d="M651 1166V739h407V604H651V174H505v430H100v135h405v427h146Z"/><glyph unicode="," glyph-name="comma" horiz-adv-x="424" d="M94 123q0 23 8 43t24 36 38 25 48 9q30 0 53-11t39-30 24-45 8-56q0-45-13-93t-37-96-59-93-81-83l-30 29q-13 12-13 28 0 13 14 27 10 11 25 29t32 43 29 53 20 62h-13q-26 0-47 9t-36 25-24 39-9 50Z"/><glyph unicode="-" glyph-name="hyphen" horiz-adv-x="694" d="M100 675h494V524H100v151Z"/><glyph unicode="." glyph-name="period" horiz-adv-x="424" d="M88 110q0 26 9 49t26 40 40 27 49 10q26 0 49-10t40-27 26-40 10-49q0-27-9-49t-27-40-40-26-49-10q-26 0-49 9t-39 27-26 39-10 50Z"/><glyph unicode="/" glyph-name="slash" horiz-adv-x="746" d="M161-21q-14-35-41-52T63-90h-75l601 1497q13 32 37 49t57 17h75L161-21Z"/><glyph unicode="0" glyph-name="zero" horiz-adv-x="1160" d="M1100 716q0-188-40-325T949 163 784 29 579-15q-110 0-204 44T210 163 100 390 60 716q0 188 40 326t110 228 164 135 205 44q109 0 204-44t166-134 110-229 41-326Zm-185 0q0 164-27 275t-74 180-108 97-127 30q-66 0-127-29t-107-98-73-179-28-276q0-164 27-275t74-179 107-97 127-30q66 0 127 29t107 98 74 179 28 275Z"/><glyph unicode="1" glyph-name="one" horiz-adv-x="1160" d="M287 136h308v977q0 44 3 89L342 983q-10-8-20-11t-19-4q-15 0-27 6t-18 16l-56 77 426 369h145V136h282V0H287v136Z"/><glyph unicode="2" glyph-name="two" horiz-adv-x="1160" d="M601 1449q91 0 170-27t136-78 91-126 33-168q0-80-24-148t-65-130-94-121-114-120L357 145q40 11 81 17t79 7h480q29 0 46-17t17-44V0H104v61q0 19 7 39t25 37l459 461q57 58 104 111t80 108 52 109 18 119q0 63-20 110t-55 79-82 46-101 16q-54 0-100-16t-81-44-60-68-35-86q-8-29-24-42t-42-13h-10q-5 0-13 2l-93 16q14 98 54 173t101 127 141 77 172 27Z"/><glyph unicode="3" glyph-name="three" horiz-adv-x="1160" d="M620 1449q91 0 168-26t132-74 87-116 31-151q0-68-17-121t-50-94-79-69-103-45q140-37 210-124t71-218q0-99-37-178T930 99 779 14 593-16q-114 0-195 28T261 91t-92 118-61 149l76 32q21 9 42 9 20 0 35-8t24-27l4-8q2-4 4-10 14-29 34-65t54-69 84-54 126-22q75 0 131 24t94 64 57 87 19 95q0 58-15 106t-56 83-112 55-184 20v129q91 1 155 20t106 52 59 79 19 102q0 62-19 108t-54 76-80 45-101 15q-54 0-100-16t-81-44-60-68-36-86q-8-29-24-42t-41-13h-10q-5 0-13 2l-93 16q14 98 54 173t101 127 141 77 172 27Z"/><glyph unicode="4" glyph-name="four" horiz-adv-x="1160" d="M903 517h217V415q0-16-9-27t-30-11H903V0H746v377H111q-20 0-34 11t-19 29l-18 91 697 925h166V517Zm-157 591q0 26 1 56t7 62L233 517h513v591Z"/><glyph unicode="5" glyph-name="five" horiz-adv-x="1160" d="M978 1355q0-38-24-62t-81-25H423l-66-376q112 24 207 24 112 0 197-33t144-91 87-137 30-172q0-114-40-206T873 120 709 19 506-16q-63 0-121 12T277 30t-93 48-76 57l54 76q18 26 48 26 19 0 44-15t62-35 84-34 116-16q75 0 135 24t102 68 66 107 23 139q0 67-19 121t-59 92-99 59-138 21q-54 0-112-9t-120-29l-112 33 116 670h679v-78Z"/><glyph unicode="6" glyph-name="six" horiz-adv-x="1160" d="M650 878q86 0 163-28t135-83 92-134 34-182q0-99-36-184T938 119 782 20 582-16q-108 0-195 34t-150 98-95 154-34 203q0 94 42 200t133 228l363 489q14 18 39 30t57 13h158L403 804q51 35 113 54t134 20ZM280 442q0-69 20-126t58-98 94-63 127-23q72 0 130 23t99 64 64 97 23 122q0 70-22 126t-62 96-96 61-123 21q-72 0-130-24t-98-66-62-96-22-114Z"/><glyph unicode="7" glyph-name="seven" horiz-adv-x="1160" d="M1084 1433v-80q0-34-7-56t-16-37L468 63q-13-26-36-44T370 0H243l602 1182q13 25 26 46t31 40H154q-17 0-30 13t-14 31v121h974Z"/><glyph unicode="8" glyph-name="eight" horiz-adv-x="1160" d="M579-16q-107 0-196 28T230 94t-99 128-35 170q0 138 72 227t206 128q-113 42-170 125t-58 200q0 79 31 148t88 120 136 80 178 29q97 0 177-29t137-80 88-120 31-148q0-116-58-199T784 747q134-38 206-127t72-228q0-94-35-169T928 94 775 13 579-16Zm0 142q70 0 125 19t94 55 59 85 21 110q0 74-24 126t-66 86-96 48-113 16q-59 0-113-15t-95-49-66-85-25-127q0-60 20-109t59-85 94-55 126-20Zm0 688q70 0 119 21t81 57 45 82 14 95q0 50-16 94t-49 77-81 52-113 19q-64 0-112-19t-81-52-49-77-17-94q0-49 14-95t45-81 80-57 120-22Z"/><glyph unicode="9" glyph-name="nine" horiz-adv-x="1160" d="M549 588q-81 0-153 27t-128 79-87 129-33 176q0 94 35 176t98 143 150 96 191 35q103 0 187-34t144-95 92-146 33-188q0-62-11-117t-34-109-52-105-70-109L562 42q-13-19-37-30T470 0H306l436 571q22 29 41 55t36 52q-55-44-124-67t-146-23Zm358 419q0 67-21 121t-60 93-90 58-116 21q-66 0-120-21t-93-60-60-91-21-116q0-68 19-121t56-91 89-56 118-19q72 0 127 23t94 63 58 90 20 106Z"/><glyph unicode=":" glyph-name="colon" horiz-adv-x="504" d="M128 110q0 26 9 49t26 40 40 27 49 10q26 0 49-10t40-27 26-40 10-49q0-27-9-49t-27-40-40-26-49-10q-26 0-49 9t-39 27-26 39-10 50Zm0 750q0 26 9 49t26 40 40 27 49 10q26 0 49-10t40-27 26-40 10-49q0-27-9-49t-27-40-40-26-49-10q-26 0-49 9t-39 27-26 39-10 50Z"/><glyph unicode=";" glyph-name="semicolon" horiz-adv-x="504" d="M134 123q0 23 8 43t24 36 38 25 48 9q30 0 53-11t39-30 24-45 8-56q0-45-13-93t-37-96-59-93-81-83l-30 29q-13 12-13 28 0 13 14 27 10 11 25 29t32 43 29 53 20 62h-13q-26 0-47 9t-36 25-24 39-9 50Zm-6 737q0 26 9 49t26 40 40 27 49 10q26 0 49-10t40-27 26-40 10-49q0-27-9-49t-27-40-40-26-49-10q-26 0-49 9t-39 27-26 39-10 50Z"/><glyph unicode="&lt;" glyph-name="less" horiz-adv-x="1160" d="m148 710 774 401V984q0-17-8-29t-28-23L437 704q-20-11-42-18t-48-14q25-5 47-13t43-18l449-227q20-10 28-23t8-29V234L148 636v74Z"/><glyph unicode="=" glyph-name="equal" horiz-adv-x="1160" d="M150 574h859V439H150v135Zm0 335h859V774H150v135Z"/><glyph unicode="&gt;" glyph-name="greater" horiz-adv-x="1160" d="M238 234v128q0 16 8 29t28 23l449 227q20 10 41 18t47 13q-25 6-46 13t-42 19L274 932q-20 10-28 22t-8 30v127l773-401v-74L238 234Z"/><glyph unicode="?" glyph-name="question" horiz-adv-x="796" d="M34 1305q31 29 68 55t82 46 96 31 112 12q79 0 146-23t117-65 77-102 28-135q0-76-22-131t-57-96-76-72-76-58-61-54-30-60l-18-153H298l-12 166v11q0 42 22 74t57 61 74 57 74 63 57 79 23 104q0 43-17 78t-46 59-68 38-85 13q-61 0-104-15t-74-33-48-33-31-15q-25 0-39 23l-47 75ZM230 110q0 26 9 49t26 40 40 27 49 10q26 0 49-10t40-27 26-40 10-49q0-27-9-49t-27-40-40-26-49-10q-26 0-49 9t-39 27-26 39-10 50Z"/><glyph unicode="@" glyph-name="at" horiz-adv-x="1644" d="M1167 186q-78 0-127 37t-62 116q-58-81-126-116t-146-35q-60 0-104 20t-73 57-44 87-15 108q0 85 32 171t97 156 159 114 221 44q67 0 117-10t96-31l-93-361q-19-75-19-124 0-36 9-59t24-37 36-19 44-5q49 0 93 28t77 79 53 122 20 159q0 138-44 242t-122 173-183 104-228 35q-134 0-251-51t-204-141-137-213-50-268q0-170 53-298T416 54 633-77t268-44q152 0 268 33t202 84q15 9 27 9 21 0 31-24l25-66q-107-72-243-113t-310-41q-173 0-322 55T321-26 149 228 86 568q0 109 27 210t78 188 120 160 156 124 185 80 207 29q92 0 180-20t166-59 145-96 113-132 74-166 27-199q0-108-30-199t-84-159-126-105-157-38ZM741 306q31 0 62 10t61 35 54 68 42 108l76 295q-39 9-85 9-75 0-137-31t-108-83-70-117-26-135q0-72 33-115t98-44Z"/><glyph unicode="A" glyph-name="A" horiz-adv-x="1360" d="M1353 0h-150q-26 0-42 13t-24 33l-134 346H360L226 46q-7-18-24-32T160 0H10l573 1433h197L1353 0ZM414 532h535l-225 583q-22 54-43 135-11-41-21-75t-21-61L414 532Z"/><glyph unicode="B" glyph-name="B" horiz-adv-x="1294" d="M174 0v1433h457q132 0 227-26t157-74 91-117 30-157q0-53-16-102t-50-91-84-75-119-54q157-31 237-113t80-216q0-91-33-166t-98-129-158-83T681 0H174Zm194 653V154h310q83 0 142 19t98 53 57 82 18 105q0 111-78 175t-238 65H368Zm0 138h256q82 0 142 18t99 50 59 77 19 100q0 126-76 185t-236 59H368V791Z"/><glyph unicode="C" glyph-name="C" horiz-adv-x="1370" d="M1184 296q16 0 29-13l76-83q-88-102-213-159T773-16q-155 0-281 53T277 187 139 419 90 716q0 162 52 297t148 232 227 150 293 54q158 0 272-49t204-133l-63-89q-7-10-16-16t-26-7q-13 0-27 9t-35 24-47 30-64 30-86 23-113 10q-115 0-210-39t-165-113-107-178-39-235q0-134 38-239t105-177 158-111 196-38q64 0 115 7t94 24 81 40 76 59q17 15 33 15Z"/><glyph unicode="D" glyph-name="D" horiz-adv-x="1506" d="M1416 716q0-161-51-293t-144-226T998 52 710 0H174v1433h536q158 0 288-51t223-146 144-227 51-293Zm-199 0q0 132-36 236t-102 176-160 110-209 38H369V157h341q115 0 209 38t160 109 102 176 36 236Z"/><glyph unicode="E" glyph-name="E" horiz-adv-x="1162" d="M1057 1433v-158H369V799h557V647H369V158h688V0H174v1433h883Z"/><glyph unicode="F" glyph-name="F" horiz-adv-x="1132" d="M1057 1433v-158H369V774h588V616H369V0H174v1433h883Z"/><glyph unicode="G" glyph-name="G" horiz-adv-x="1468" d="M813 141q58 0 106 5t92 17 81 26 76 36v316H946q-19 0-30 11t-12 27v110h440V139q-54-39-112-68t-125-48T964-6 799-16q-156 0-286 53T289 187 143 419 90 716q0 164 51 299t147 231 231 150 304 53q85 0 158-12t135-36 116-57 99-76l-55-88q-17-27-44-27-16 0-35 11-25 14-56 34t-75 38-105 32-144 13q-121 0-219-39t-167-113-106-178-37-235q0-136 38-242t109-181 166-113 212-39Z"/><glyph unicode="H" glyph-name="H" horiz-adv-x="1512" d="M1336 0h-195v652H369V0H174v1433h195V794h772v639h195V0Z"/><glyph unicode="I" glyph-name="I" horiz-adv-x="614" d="M404 0H210v1433h194V0Z"/><glyph unicode="J" glyph-name="J" horiz-adv-x="888" d="M713 495q0-120-29-215t-87-160T455 19 262-16q-97 0-202 28 2 29 5 57t6 57q2 17 12 27t32 11q18 0 48-9t80-9q66 0 117 20t87 62 54 107 19 156v942h193V495Z"/><glyph unicode="K" glyph-name="K" horiz-adv-x="1362" d="M387 805h73q38 0 60 9t43 33l477 540q22 25 42 35t53 11h165L754 816q-21-23-39-39t-40-26q28-9 49-27t44-45L1338 0h-168q-19 0-32 3t-22 8-18 13-16 17L587 610q-11 12-20 20t-22 15-29 8-41 3h-88V0H194v1433h193V805Z"/><glyph unicode="L" glyph-name="L" horiz-adv-x="1028" d="M368 163h620V0H174v1433h194V163Z"/><glyph unicode="M" glyph-name="M" horiz-adv-x="1840" d="M879 518q14-24 24-50t21-54q10 28 21 53t25 52l485 881q13 23 27 28t40 5h143V0h-170v1053q0 21 1 45t3 49l-491-896q-25-45-70-45h-28q-45 0-70 45l-502 899q3-26 4-51t2-46V0H174v1433h143q26 0 40-5t27-28l495-882Z"/><glyph unicode="N" glyph-name="N" horiz-adv-x="1512" d="M274 1433q26 0 38-6t29-27l830-1080q-3 26-4 50t-1 48v1015h170V0h-98q-23 0-38 8t-31 27L340 1114q2-25 3-49t1-44V0H174v1433h100Z"/><glyph unicode="O" glyph-name="O" horiz-adv-x="1596" d="M1505 716q0-161-51-295t-144-232-223-150-289-54q-158 0-288 53T287 189 143 420 92 716q0 161 51 295t144 232 223 152 288 54q158 0 288-54t224-151 144-232 51-296Zm-199 0q0 132-36 237t-102 177-160 112-210 39q-115 0-209-39t-160-111-103-178-36-237q0-132 36-236t102-177 161-111 209-39q116 0 210 38t160 111 102 177 36 237Z"/><glyph unicode="P" glyph-name="P" horiz-adv-x="1222" d="M387 536V0H194v1433h423q136 0 236-31t167-90 98-140 33-183q0-100-35-183t-102-143-168-93-229-34H387Zm0 154h230q83 0 146 22t107 61 65 95 22 121q0 137-84 214t-256 77H387V690Z"/><glyph unicode="Q" glyph-name="Q" horiz-adv-x="1596" d="M1505 716q0-101-20-192t-60-169-95-143-126-111l368-397h-160q-36 0-64 10t-51 35L1045 23Q988 5 927-5T798-15q-158 0-288 53T287 189 143 420 92 716q0 161 51 295t144 232 223 152 288 54q158 0 288-54t224-151 144-232 51-296Zm-199 0q0 132-36 237t-102 177-160 112-210 39q-115 0-209-39t-160-111-103-178-36-237q0-132 36-236t102-177 161-111 209-39q116 0 210 38t160 111 102 177 36 237Z"/><glyph unicode="R" glyph-name="R" horiz-adv-x="1288" d="M387 598V0H194v1433h405q136 0 235-27t163-80 96-125 31-165q0-76-24-142t-69-118-111-90-149-56q36-21 64-61L1253 0h-172q-53 0-78 41L631 553q-17 24-37 34t-60 11H387Zm0 141h203q85 0 149 20t108 58 66 90 22 115q0 128-84 193t-252 65H387V739Z"/><glyph unicode="S" glyph-name="S" horiz-adv-x="1060" d="M908 1209q-9-15-19-22t-26-8q-17 0-39 17t-57 37-83 38-118 17q-65 0-115-17t-83-48-51-70-17-88q0-60 29-99t78-68 110-48 126-43 126-49 110-70 78-103 30-150q0-94-32-176t-93-144-151-96-204-35q-139 0-253 50T58 171l56 92q8 11 19 18t26 8q21 0 48-22t67-50 98-49 141-23q69 0 123 19t91 53 58 83 20 107q0 65-29 106t-78 70-109 47-126 40-126 48-110 70-77 107-30 160q0 76 29 147t86 126 138 88 190 33q120 0 219-38t173-110l-47-92Z"/><glyph unicode="T" glyph-name="T" horiz-adv-x="1180" d="M1150 1433v-163H687V0H493v1270H28v163h1122Z"/><glyph unicode="U" glyph-name="U" horiz-adv-x="1460" d="M731 154q89 0 159 30t118 84 74 129 26 165v871h193V562q0-124-39-230t-113-183T969 27 731-17q-132 0-238 44T313 148 200 332t-40 230v871h193V563q0-90 25-165t74-129 119-84 160-31Z"/><glyph unicode="V" glyph-name="V" horiz-adv-x="1360" d="M8 1433h155q26 0 42-13t24-33L634 376q14-34 25-74t23-83q9 43 19 83t25 74l403 1011q7 17 24 31t42 15h156L767 0H592L8 1433Z"/><glyph unicode="W" glyph-name="W" horiz-adv-x="2038" d="M14 1433h161q26 0 43-13t23-33l296-996q8-27 14-58t13-65q7 34 14 65t16 58l337 996q6 17 23 31t43 15h56q26 0 42-13t24-33l335-996q18-52 32-119 6 33 11 63t13 56l297 996q5 18 22 32t43 14h151L1576 0h-174l-363 1093q-11 31-20 72-5-20-9-38t-10-34L635 0H461L14 1433Z"/><glyph unicode="X" glyph-name="X" horiz-adv-x="1286" d="M507 736 34 1433h193q21 0 31-7t18-20l374-574q7 21 21 46l353 524q9 14 19 22t26 9h185L779 745 1270 0h-192q-22 0-34 11t-21 26L639 638q-7-21-18-40L247 37q-9-14-20-25T194 0H14l493 736Z"/><glyph unicode="Y" glyph-name="Y" horiz-adv-x="1258" d="M726 570V0H533v570L8 1433h170q26 0 41-13t26-32l328-557q20-35 33-66t25-61q11 31 24 62t33 65l327 557q9 16 24 30t41 15h172L726 570Z"/><glyph unicode="Z" glyph-name="Z" horiz-adv-x="1248" d="M1172 1433v-72q0-34-21-64L340 158h818V0H86v76q0 30 19 57l812 1142H124v158h1048Z"/><glyph unicode="[" glyph-name="bracketleft" horiz-adv-x="600" d="M142-289v1822h368v-70q0-22-13-34t-36-13H292V-171h169q22 0 35-12t14-36v-70H142Z"/><glyph unicode="\" glyph-name="backslash" horiz-adv-x="750" d="M-20 1473h76q33 0 57-17t37-49L751-90h-75q-29 0-57 17t-41 52L-20 1473Z"/><glyph unicode="]" glyph-name="bracketright" horiz-adv-x="600" d="M90-219q0 20 13 34t36 14h169v1587H139q-22 0-35 13t-14 34v70h368V-289H90v70Z"/><glyph unicode="^" glyph-name="asciicircum" horiz-adv-x="1160" d="M516 1433h115l358-646H860q-17 0-29 10t-20 24l-196 352q-13 23-22 44t-17 43q-14-44-37-87L345 821q-8-14-19-24t-32-10H158l358 646Z"/><glyph unicode="_" glyph-name="underscore" horiz-adv-x="788" d="M788-165v-120H0v120h788Z"/><glyph unicode="`" glyph-name="grave" horiz-adv-x="614" d="M207 1449q33 0 49-10t30-34l149-242H333q-21 0-34 6t-27 22L38 1449h169Z"/><glyph unicode="a" glyph-name="a" horiz-adv-x="1014" d="M890 0h-79q-26 0-42 8t-21 34l-20 94q-40-36-78-64t-80-48-89-30-106-10q-59 0-110 16t-90 50-60 83-23 120q0 60 33 115t106 99 193 70 291 32v79q0 118-50 178t-150 61q-65 0-109-16t-77-37-56-37-47-17q-18 0-31 9t-22 24l-32 57q84 81 181 121t215 40q85 0 151-28t111-78 68-121 23-156V0ZM428 109q47 0 86 9t73 27 66 43 62 57v211q-123-4-209-19t-140-41-78-59-25-76q0-40 13-69t35-47 52-27 65-9Z"/><glyph unicode="b" glyph-name="b" horiz-adv-x="1118" d="M152 0v1473h179V867q63 73 144 117t187 45q88 0 159-33t121-98 77-162 27-223q0-112-30-208t-86-167T792 27 608-14q-98 0-166 38T322 130l-9-92q-8-38-46-38H152Zm452 887q-87 0-152-40T331 734V244q48-66 106-93t131-27q142 0 218 101t76 288q0 99-17 170t-51 116-81 67-109 21Z"/><glyph unicode="c" glyph-name="c" horiz-adv-x="934" d="M837 833q-8-11-16-17t-23-6q-15 0-32 12t-45 28-65 27-95 13q-74 0-131-26t-95-77-58-121-20-159q0-92 21-163t59-120 92-74 123-26q65 0 107 15t70 35 46 34 36 16q23 0 34-17l50-65Q829 61 730 24T521-14q-95 0-176 35T203 122t-94 164-35 221q0 113 31 209t92 165 150 109 204 39q106 0 188-34t145-98l-47-64Z"/><glyph unicode="d" glyph-name="d" horiz-adv-x="1118" d="M859 0q-38 0-48 37l-16 123Q730 81 647 34T455-14q-87 0-158 33t-121 99-77 162-27 223q0 112 30 208t86 168 138 111 184 41q93 0 159-31t118-89v562h178V0H859ZM514 130q87 0 152 40t121 113v490q-49 66-107 92t-130 27q-142 0-218-101t-76-288q0-99 17-169t50-116 81-67 110-21Z"/><glyph unicode="e" glyph-name="e" horiz-adv-x="1048" d="M547 1029q91 0 168-30t133-88 87-142 32-193q0-42-9-56t-34-14H250q2-96 26-167t66-118 100-71 130-24q67 0 115 15t84 34 58 33 41 16q22 0 34-17l50-65q-33-40-79-69t-98-49T668-4 557-14q-105 0-193 35T211 125 110 295 74 527q0 106 32 198t94 159 149 106 198 39Zm4-131q-129 0-203-74t-92-207h551q0 62-17 113t-50 89-80 58-109 21Z"/><glyph unicode="f" glyph-name="f" horiz-adv-x="674" d="M186 0v861L74 874q-21 5-34 15t-14 31v73h160v98q0 87 24 154t70 114 110 71 144 24q68 0 126-20l-4-89q-1-20-17-24t-45-4h-31q-46 0-83-12t-65-39-41-71-15-109v-93h293V864H365V0H186Z"/><glyph unicode="g" glyph-name="g" horiz-adv-x="1022" d="M487 1030q66 0 123-14t105-43h275v-66q0-33-42-42l-115-16q34-65 34-145 0-74-28-134t-79-104-120-66-153-23q-71 0-134 17-32-20-48-43t-17-45q0-36 29-54t77-27 109-10 124-6 125-16 109-36 77-69 29-114q0-65-32-126t-94-108-149-76-199-29q-111 0-194 22t-139 59-82 85T50-97q0 75 47 127t131 84q-43 20-68 53t-26 90q0 22 8 45t24 47 41 44 56 37q-75 42-117 111t-43 163q0 74 28 134t80 103 121 66 155 23ZM803-55q0 38-21 61t-57 35-83 19-99 8-106 6-103 11q-57-27-92-66t-36-93q0-34 17-63t54-51 90-34 129-13q72 0 129 13t96 37 61 57 21 73ZM487 495q54 0 95 15t70 42 42 64 14 83q0 93-56 148t-165 55q-107 0-163-55t-57-148q0-45 14-82t43-65 69-42 94-15Z"/><glyph unicode="h" glyph-name="h" horiz-adv-x="1112" d="M146 0v1473h178V877q65 69 144 110t182 42q83 0 146-27t106-78 65-122 22-157V0H811v645q0 115-52 178t-161 64q-79 0-147-38T324 746V0H146Z"/><glyph unicode="i" glyph-name="i" horiz-adv-x="512" d="M344 1013V0H166v1013h178Zm40 318q0-26-10-48t-28-40-41-28-49-10q-26 0-48 10t-40 27-28 40-10 49q0 26 10 49t27 41 40 28 49 10q26 0 49-10t40-27 28-41 11-50Z"/><glyph unicode="j" glyph-name="j" horiz-adv-x="508" d="M344 1013V-75q0-61-16-113t-50-92-89-61-131-23q-33 0-60 5t-54 15l8 96q2 13 9 16t22 4H0q9 0 22-1 78 0 111 36t33 118v1088h178Zm40 318q0-26-10-48t-28-40-41-28-49-10q-26 0-48 10t-40 27-28 40-10 49q0 26 10 49t27 41 40 28 49 10q26 0 49-10t40-27 28-41 11-50Z"/><glyph unicode="k" glyph-name="k" horiz-adv-x="1048" d="M331 1473V606h46q20 0 33 5t29 23l320 343q15 16 30 26t40 10h162L618 616q-14-17-27-30t-31-23q18-12 32-27t28-36L1016 0H856q-22 0-37 8t-30 27L456 450q-15 21-30 27t-45 7h-50V0H152v1473h179Z"/><glyph unicode="l" glyph-name="l" horiz-adv-x="512" d="M344 1473V0H166v1473h178Z"/><glyph unicode="m" glyph-name="m" horiz-adv-x="1642" d="M146 0v1013h106q38 0 48-37l13-104q56 69 125 113t162 44q103 0 166-57t92-154q21 55 55 95t78 66 91 38 99 12q80 0 142-25t106-75 67-120 23-164V0h-178v645q0 119-52 180t-151 62q-44 0-83-15t-70-46-47-75-18-106V0H742v645q0 122-49 182t-143 60q-66 0-122-35t-104-97V0H146Z"/><glyph unicode="n" glyph-name="n" horiz-adv-x="1112" d="M146 0v1013h106q38 0 48-37l14-110q66 73 147 118t189 45q83 0 146-27t106-78 65-122 22-157V0H811v645q0 115-52 178t-161 64q-79 0-147-38T324 746V0H146Z"/><glyph unicode="o" glyph-name="o" horiz-adv-x="1112" d="M556 1029q111 0 200-37t152-105 96-164 34-216q0-120-33-216t-96-164T757 23 556-14q-111 0-200 36T203 127t-97 164-34 216q0 119 34 215t97 165 152 105 201 37Zm0-904q150 0 224 100t74 281q0 181-74 282T556 889q-76 0-132-26t-93-75-56-120-19-162q0-90 18-161t56-119 94-75 132-26Z"/><glyph unicode="p" glyph-name="p" horiz-adv-x="1104" d="M146-343v1356h106q38 0 48-37l15-120q65 79 148 127t193 48q87 0 158-33t121-99 77-163 27-223q0-112-30-208t-86-167T786 27 602-14q-94 0-160 31t-118 88v-448H146ZM597 887q-87 0-152-40T324 734V244q49-66 107-93t131-27q141 0 217 101t76 288q0 99-17 170t-51 116-81 67-109 21Z"/><glyph unicode="q" glyph-name="q" horiz-adv-x="1118" d="M965 1013V-343H787v493Q723 76 642 31T455-14q-87 0-158 33t-121 99-77 162-27 223q0 112 30 208t86 168 138 111 184 41q98 0 166-35t123-99l12 79q10 37 48 37h106ZM514 130q87 0 152 40t121 113v490q-48 64-107 91t-130 28q-142 0-218-101t-76-288q0-99 17-169t50-116 81-67 110-21Z"/><glyph unicode="r" glyph-name="r" horiz-adv-x="806" d="M146 0v1013h102q29 0 40-11t15-38l12-158q52 106 128 165t180 60q42 0 76-9t63-27l-23-133q-7-25-31-25-14 0-43 9t-81 10q-93 0-155-54T324 645V0H146Z"/><glyph unicode="s" glyph-name="s" horiz-adv-x="868" d="M726 846q-12-22-37-22-15 0-34 11t-46 24-66 25-90 12q-45 0-81-11t-61-32-39-46-14-58q0-39 22-65t60-45 84-33 96-31 97-37 84-50 59-73 23-105q0-70-25-129T684 78 564 9 400-16q-106 0-192 34T62 107l42 68q8 13 19 20t29 7q18 0 38-14t48-31 69-31 102-14q52 0 91 13t65 37 38 53 13 64q0 42-22 69t-60 47-84 34-97 31-97 36-85 52-59 76-23 111q0 58 24 111t70 94 113 65 153 24q100 0 179-31t138-87l-40-65Z"/><glyph unicode="t" glyph-name="t" horiz-adv-x="746" d="M453-16q-120 0-184 67t-65 193v620H82q-16 0-27 9t-11 30v71l166 21 41 313q2 15 13 24t28 10h90V993h290V864H382V256q0-64 31-95t80-31q28 0 48 7t36 17 25 16 19 8q14 0 25-17l52-85Q652 33 587 9T453-16Z"/><glyph unicode="u" glyph-name="u" horiz-adv-x="1112" d="M300 1013V367q0-115 53-178t160-63q78 0 147 37t127 103v747h178V0H859q-38 0-48 37l-14 109Q731 73 649 29T461-16q-83 0-146 27T208 89t-64 121-22 157v646h178Z"/><glyph unicode="v" glyph-name="v" horiz-adv-x="1024" d="M18 1013h146q21 0 35-11t20-26l257-652q14-36 22-72t15-71q8 35 17 71t23 72l260 652q6 16 19 26t34 11h139L592 0H431L18 1013Z"/><glyph unicode="w" glyph-name="w" horiz-adv-x="1532" d="M14 1013h140q22 0 36-11t19-26l194-652q8-36 15-69t12-68q8 34 18 67t21 70l214 656q5 15 17 25t32 10h77q20 0 33-10t18-25l209-656q11-35 19-69t17-67q5 33 13 69t17 67l198 652q5 16 19 26t33 11h134L1191 0h-141q-26 0-36 34L790 721q-8 23-13 46t-10 47q-5-23-10-47t-13-47L517 34Q506 0 476 0H342L14 1013Z"/><glyph unicode="x" glyph-name="x" horiz-adv-x="1008" d="M383 519 42 1013h171q22 0 32-7t18-20l248-380q9 28 26 56l218 320q10 14 20 22t25 9h164L623 529 978 0H807q-22 0-34 11t-21 26L497 434q-7-29-21-52L240 37q-10-14-21-25T187 0H28l355 519Z"/><glyph unicode="y" glyph-name="y" horiz-adv-x="1024" d="M443-299q-9-20-22-32t-42-12H247L432 59 14 1013h154q23 0 36-11t19-26l271-638q9-22 15-44t12-45q7 23 14 45t16 45l263 637q6 16 20 26t32 11h142L443-299Z"/><glyph unicode="z" glyph-name="z" horiz-adv-x="924" d="M853 937q0-19-7-36t-18-32L280 139h553V0H70v74q0 13 6 30t19 34l551 735H101v140h752v-76Z"/><glyph unicode="{" glyph-name="braceleft" horiz-adv-x="600" d="M181 425q0 63-35 103T44 569v107q67 0 102 40t35 104q0 50-8 99t-17 98-18 99-8 102q0 69 20 127t62 100 103 65 144 23h53v-79q0-20-14-29t-26-9h-20q-77 0-121-50t-45-137q0-56 7-108t16-101 16-99 7-99q0-38-11-70t-31-58-48-44-61-28q33-9 60-27t48-45 32-58 11-69q0-50-7-99t-16-98-16-102-7-108q0-87 44-137t122-50h20q12 0 26-9t14-29v-80h-53q-82 0-143 23t-103 66-62 100-21 127q0 52 8 101t17 99 18 99 8 99Z"/><glyph unicode="|" glyph-name="bar" horiz-adv-x="600" d="M230 1533h138V-343H230v1876Z"/><glyph unicode="}" glyph-name="braceright" horiz-adv-x="600" d="M419 425q0-50 8-99t17-98 18-99 8-102q0-69-21-127t-62-100-102-65-144-24H88v80q0 20 14 29t26 9h20q77 0 121 50t45 137q0 56-7 108t-16 101-16 99-7 99q0 37 11 69t31 58 48 44 61 28q-33 9-60 27t-48 44-32 58-11 71q0 50 7 99t16 98 16 102 7 108q0 86-44 136t-122 51h-20q-12 0-26 9t-14 29v79h53q82 0 143-23t103-65 62-100 21-127q0-52-8-102t-17-99-18-98-8-99q0-64 35-104t102-40V569q-67 0-102-40t-35-104Z"/><glyph unicode="~" glyph-name="asciitilde" horiz-adv-x="1160" d="M759 613q65 0 101 42t38 113h144q0-67-18-123t-53-96-86-62-115-22q-52 0-103 16t-98 35-91 36-79 17q-65 0-101-42t-38-113H116q0 67 18 123t53 96 85 62 116 23q52 0 103-16t98-36 91-36 79-17Z"/><glyph glyph-name="uni00A0" horiz-adv-x="386"/><glyph unicode="¡" glyph-name="exclamdown" horiz-adv-x="686" d="M262-343v541q0 45 1 87t5 86 7 90 11 98h121q6-52 10-98t8-89 4-86 2-88v-541H262ZM218 904q0 27 9 49t27 40 39 26 50 10q26 0 48-9t40-27 27-39 10-50q0-26-10-49t-27-40-39-27-49-10q-27 0-49 10t-40 27-26 40-10 49Z"/><glyph unicode="¢" glyph-name="cent" horiz-adv-x="1160" d="M561-11Q469-1 392 38T258 144t-88 157-32 205q0 111 33 204t96 163 155 109 211 44l12 179q2 20 15 34t35 15h66l-16-233q82-12 148-43t120-81l-46-62q-8-11-15-16t-22-6q-12 0-28 8t-39 21-54 24-74 19l-52-762q63 4 105 19t72 33 49 31 35 14q11 0 20-4t14-12l48-63Q966 69 874 32T674-12l-12-175q-2-19-15-33t-35-15h-66l15 224ZM315 506q0-162 67-258t189-119l52 760q-76-6-133-34t-97-78-58-118-20-153Z"/><glyph unicode="£" glyph-name="sterling" horiz-adv-x="1160" d="M52 672q0 26 16 44t45 18h134v261q0 94 27 176t82 144 137 97 192 36q78 0 138-19t108-54 81-79 59-97l-72-46q-10-6-20-8t-21-3q-14 0-26 5t-24 20q-20 25-40 48t-46 41-59 28-78 11q-63 0-111-21t-80-60-48-94-16-123V734h441v-72q0-18-15-33t-37-15H430V371q0-75-28-129t-79-100q29 5 57 8t59 4h676V78q0-14-5-27t-16-25-24-19-32-7H74v115q34 10 65 27t55 42 38 60 15 81v289H52v58Z"/><glyph unicode="¤" glyph-name="currency" horiz-adv-x="1160" d="M223 672q0 57 16 107t46 95l-153 153 91 90 151-152q44 31 96 48t110 17q57 0 108-16t94-47l153 153 89-91-151-152q31-44 48-95t17-110q0-57-16-108t-46-94l152-151-91-92-152 152q-44-30-96-47t-109-17q-57 0-107 16t-95 46L225 224l-89 91 151 152q-30 44-47 95t-17 110Zm132 0q0-46 17-86t49-71 71-49 88-18q47 0 88 18t72 48 49 71 18 87q0 47-18 88t-48 72-72 48-89 18q-47 0-87-17t-72-49-48-72-18-88Z"/><glyph unicode="¥" glyph-name="yen" horiz-adv-x="1160" d="M146 625h306L44 1433h149q26 0 41-12t26-33l276-566q14-35 24-64t17-58q7 29 16 58t23 64l275 566q8 17 24 31t42 14h150L698 625h307V523H665V418h340V315H665V0H486v315H146v103h340v105H146v102Z"/><glyph unicode="¦" glyph-name="brokenbar" horiz-adv-x="600" d="M230 1533h138V739H230v794Zm0-1081h138v-795H230v795Z"/><glyph unicode="§" glyph-name="section" horiz-adv-x="1006" d="M817 1265q-12-22-37-22-15 0-34 11t-46 24-66 25-90 12q-48 0-86-12t-65-34-41-49-14-59q0-38 24-66t64-52 91-45 103-45 104-50 90-63 64-82 25-107q0-81-39-144T741 405q49-37 80-86t31-118q0-70-25-129T754-31t-120-69-164-25q-106 0-192 34T132-2l41 68q8 13 19 20t29 7q18 0 38-14t49-31 71-32T485 2q50 0 89 12t67 35 41 54 14 69q0 45-25 78t-66 58-93 47-107 43-107 47-93 61-66 81-25 111q0 78 43 140t136 98q-50 38-81 90t-32 128q0 58 24 111t70 94 113 64 153 24q100 0 179-31t138-86l-40-65ZM272 726q0-51 35-86t89-64 121-55 128-58q54 26 78 63t24 85q0 36-15 64t-41 51-61 42-74 36-82 35-82 38q-66-30-93-66t-27-85Z"/><glyph unicode="¨" glyph-name="dieresis" horiz-adv-x="614" d="M239 1289q0-23-9-43t-25-35-36-24-44-9q-22 0-42 9t-35 24-25 35-9 43q0 23 9 44t24 36 36 25 42 9q23 0 43-9t37-24 25-37 9-44Zm359 0q0-23-9-43t-24-35-36-24-44-9q-23 0-43 9t-36 24-24 35-9 43q0 23 9 44t24 36 35 25 44 9q23 0 43-9t36-24 25-37 9-44Z"/><glyph unicode="©" glyph-name="copyright" horiz-adv-x="1596" d="M1030 463q8 5 13 8t12 4q11 0 15-3t10-9l61-64q-57-66-140-102t-199-37q-98 0-178 34t-138 95-89 145-32 184q0 101 34 185t96 145 144 94 182 34q108 0 184-34t133-89l-46-65q-5-6-13-12t-20-6q-14 0-29 11t-41 24-63 25-97 12q-70 0-126-22t-96-65-61-102-22-135q0-77 21-137t60-102 91-62 115-22q48 0 81 6t57 16 42 22 39 24ZM68 716q0 101 26 194t73 175 115 148 148 115 174 74 194 26q101 0 194-26t175-74 148-114 114-148 74-175 26-195q0-100-26-193t-73-175-115-147-148-115-174-74-195-26q-101 0-194 26T430 86 282 200 168 348 94 522 68 716Zm100 0q0-89 22-171t63-153 98-130 127-99 151-64 169-23q132 0 247 50t201 136 135 203 50 251q0 89-22 172t-64 154-98 131-128 100-151 65-170 23q-132 0-247-50t-200-138-134-205-49-252Z"/><glyph unicode="ª" glyph-name="ordfeminine" horiz-adv-x="684" d="M596 840h-60q-18 0-27 5t-17 24l-12 49q-24-21-47-37t-48-27-53-17-62-6q-38 0-70 10t-57 30-37 51-14 71q0 34 19 67t63 60 116 44 180 20v37q0 63-29 93t-86 30q-38 0-63-9t-43-19-33-19-31-9q-14 0-24 7t-15 18l-22 42q52 49 112 72t134 23q54 0 96-17t71-47 44-72 15-93V840Zm-287 83q51 0 88 19t73 54v105q-70-2-118-10t-79-22-43-31-13-39q0-42 26-59t66-17Z"/><glyph unicode="«" glyph-name="guillemotleft" horiz-adv-x="926" d="M138 518v23l249 389 58-28q14-7 21-18t7-24q0-17-10-33L304 566q-14-24-28-37 15-14 28-36l159-261q5-8 7-17t3-17q0-28-28-41l-58-28-249 389Zm296 0v23l249 389 58-28q14-7 21-18t7-24q0-17-10-33L600 566q-14-24-28-37 15-14 28-36l159-261q5-8 7-17t3-17q0-28-28-41l-58-28-249 389Z"/><glyph unicode="¬" glyph-name="logicalnot" horiz-adv-x="1160" d="M148 739h860V315H857v289H148v135Z"/><glyph unicode="­" glyph-name="uni00AD" horiz-adv-x="694" d="M100 675h494V524H100v151Z"/><glyph unicode="®" glyph-name="registered" horiz-adv-x="1596" d="M68 716q0 101 26 194t73 175 115 148 148 115 174 74 194 26q101 0 194-26t175-74 148-114 114-148 74-175 26-195q0-100-26-193t-73-175-115-147-148-115-174-74-195-26q-101 0-194 26T430 86 282 200 168 348 94 522 68 716Zm100 0q0-89 22-171t63-153 98-130 127-99 151-64 169-23q132 0 247 50t201 136 135 203 50 251q0 89-22 172t-64 154-98 131-128 100-151 65-170 23q-132 0-247-50t-200-138-134-205-49-252Zm486-90V272H498v892h288q172 0 255-62t83-185q0-94-53-160t-160-91q17-10 29-25t24-35l228-334h-148q-33 0-49 25L794 599q-9 13-21 20t-39 7h-80Zm0 114h116q55 0 93 10t62 31 34 49 11 67q0 37-9 65t-31 46-57 27-87 9H654V740Z"/><glyph unicode="¯" glyph-name="overscore" horiz-adv-x="614" d="M20 1348h574v-117H20v117Z"/><glyph unicode="°" glyph-name="degree" horiz-adv-x="794" d="M70 1128q0 67 25 126t69 102 103 69 129 25q69 0 128-25t104-68 69-103 25-126q0-66-25-124t-69-102-103-69-129-26q-69 0-128 25t-104 69-69 102-25 125Zm127-1q0-42 15-78t42-64 63-42 79-16q42 0 78 15t63 43 42 63 15 79q0 42-15 79t-42 64-63 43-78 16q-42 0-78-15t-64-43-42-65-15-79Z"/><glyph unicode="±" glyph-name="plusminus" horiz-adv-x="1160" d="M651 1202V826h407V690H651V322H505v368H100v136h405v376h146ZM100 215h958V80H100v135Z"/><glyph unicode="²" glyph-name="twosuperior" horiz-adv-x="664" d="M346 1637q52 0 94-15t73-42 46-65 17-86q0-40-12-74t-34-66-48-60-57-59l-162-165q23 6 46 10t45 4h195q21 0 32-11t12-31v-77H82v43q0 13 5 27t17 26l221 219q25 25 47 51t38 52 25 53 10 54q0 51-30 78t-75 28q-46 0-74-24t-43-66q-8-14-17-22t-27-8h-8q-4 0-10 2l-71 12q15 106 84 159t172 53Z"/><glyph unicode="³" glyph-name="threesuperior" horiz-adv-x="664" d="M354 1637q51 0 92-14t70-40 46-60 16-74q0-128-119-173 66-19 100-58t35-101q0-55-21-97t-55-70-80-43-94-15q-57 0-99 12t-72 37-52 61-37 83l55 24q15 6 29 6 29 0 40-23 6-13 15-29t24-30 36-23 54-10q31 0 54 10t40 25 24 36 8 41q0 30-8 51t-28 36-52 21-80 7v87q87 1 122 31t36 82q0 50-29 76t-77 26q-48 0-76-23t-41-64q-8-16-16-23t-24-8h-8q-4 0-10 2l-67 12q7 53 29 92t54 66 75 40 91 14Z"/><glyph unicode="´" glyph-name="acute" horiz-adv-x="614" d="m597 1449-233-258q-14-15-27-21t-35-7H196l148 242q14 23 30 33t49 11h174Z"/><glyph unicode="µ" glyph-name="mu" horiz-adv-x="1112" d="M300 1013V355q0-109 54-169t159-60q78 0 147 37t127 103v747h178V0H859q-38 0-48 37l-14 109Q730 74 660 40T502 6q-74 0-130 25t-95 72q7-42 10-85t3-82v-279h-89q-38 0-58 20t-21 56v1280h178Z"/><glyph unicode="¶" glyph-name="paragraph" horiz-adv-x="1338" d="M1302 1433v-153h-219V-201H926v1481H649V-201H492v861q-104 0-187 30t-141 83-90 124-32 152q0 86 31 156t90 121 142 79 187 28h810Z"/><glyph unicode="·" glyph-name="middot" horiz-adv-x="546" d="M124 593q0 31 11 59t32 48 48 32 57 12q31 0 59-12t48-32 32-48 12-59q0-30-12-57t-32-47-48-32-59-12q-30 0-57 11t-47 32-32 48-12 57Z"/><glyph unicode="¸" glyph-name="cedilla" horiz-adv-x="614" d="M172-247q6 0 14-3t19-8 27-8 37-4q42 0 63 16t22 43q0 19-11 32t-31 22-51 15-68 11l43 141h112l-24-80q90-20 130-54t41-89q0-32-16-57t-44-44-69-27-88-10q-41 0-78 8t-68 23l17 55q6 18 23 18Z"/><glyph unicode="¹" glyph-name="onesuperior" horiz-adv-x="664" d="M173 985h147v440l4 43-107-88q-12-9-26-9-23 0-32 14l-39 56 222 190h108V985h130v-85H173v85Z"/><glyph unicode="º" glyph-name="ordmasculine" horiz-adv-x="762" d="M382 1449q70 0 126-21t97-62 62-97 22-129q0-72-22-130t-62-98-96-62-127-22q-71 0-128 21t-97 62-63 99-22 130q0 71 22 128t62 98 98 61 128 22Zm0-515q84 0 125 52t42 153q0 100-41 152t-126 52q-87 0-128-52t-42-152q0-100 41-152t129-53Z"/><glyph unicode="»" glyph-name="guillemotright" horiz-adv-x="926" d="m236 129-58 28q-28 13-28 41 0 17 10 34l159 261q13 24 27 36-12 11-27 37L160 827q-10 17-10 34 0 28 28 41l58 28 249-389v-23L236 129Zm545 412v-23L532 129l-58 28q-28 13-28 41 0 17 10 34l159 261q13 24 27 36-12 11-27 37L456 827q-10 17-10 34 0 28 28 41l58 28 249-389Z"/><glyph unicode="¼" glyph-name="onequarter" horiz-adv-x="1424" d="M1295 267h109v-65q0-11-7-18t-20-8h-82V0h-109v176H880q-18 0-28 8t-13 20l-10 57 342 468h124V267ZM155 788h147v440l4 43-107-88q-12-9-26-9-23 0-32 14l-39 56 222 190h108V788h130v-85H155v85Zm1031-280q0 19 1 41t4 45L950 267h236v241ZM434 53q-19-31-41-42T342 0h-76l818 1372q18 29 41 45t55 16h77L434 53Z"/><glyph unicode="½" glyph-name="onehalf" horiz-adv-x="1424" d="M1126 737q52 0 94-15t73-42 46-65 17-86q0-40-12-74t-34-66-48-60-57-59l-162-165q23 6 46 10t45 4h195q21 0 32-11t12-31V0H862v43q0 13 5 27t17 26l221 219q25 25 47 51t38 52 25 53 10 54q0 51-30 78t-75 28q-46 0-74-24t-43-66q-8-14-17-22t-27-8h-8q-4 0-10 2l-71 12q15 106 84 159t172 53Zm-971 51h147v440l4 43-107-88q-12-9-26-9-23 0-32 14l-39 56 222 190h108V788h130v-85H155v85ZM390 53q-19-31-41-42T298 0h-76l818 1372q18 29 41 45t55 16h77L390 53Z"/><glyph unicode="¾" glyph-name="threequarters" horiz-adv-x="1426" d="M1296 267h109v-65q0-11-7-18t-20-8h-82V0h-109v176H881q-18 0-28 8t-13 20l-10 57 342 468h124V267ZM338 1440q51 0 92-14t70-40 46-60 16-74q0-128-119-173 66-19 100-58t35-101q0-55-21-97t-55-70-80-43-94-15q-57 0-99 12t-72 37-52 61-37 83l55 24q15 6 29 6 29 0 40-23 6-13 15-29t24-30 36-23 54-10q31 0 54 10t40 25 24 36 8 41q0 30-8 51t-28 36-52 21-80 7v87q87 1 122 31t36 82q0 50-29 76t-77 26q-48 0-76-23t-41-64q-8-16-16-23t-24-8h-8q-4 0-10 2l-67 12q7 53 29 92t54 66 75 40 91 14Zm849-932q0 19 1 41t4 45L951 267h236v241ZM439 53q-19-31-41-42T347 0h-76l818 1372q18 29 41 45t55 16h77L439 53Z"/><glyph unicode="¿" glyph-name="questiondown" horiz-adv-x="796" d="M770-212q-31-29-68-55t-82-46-96-31-112-12q-79 0-146 22t-117 63-77 100T44-37q0 76 22 129t57 91 76 65 76 51 61 48 30 58l18 154h122l12-167v-12q0-44-22-75t-57-56-74-48-74-54-57-70-23-99q0-44 17-78t46-59 68-38 85-13q61 0 104 15t74 33 49 33 31 15q14 0 22-6t16-17l47-75ZM324 903q0 26 9 49t26 40 40 27 49 10q26 0 49-10t40-27 26-40 10-49q0-27-9-49t-27-40-40-26-49-10q-26 0-49 9t-39 27-26 39-10 50Z"/><glyph unicode="À" glyph-name="Agrave" horiz-adv-x="1360" d="M1353 0h-150q-26 0-42 13t-24 33l-134 346H360L226 46q-7-18-24-32T160 0H10l573 1433h197L1353 0ZM414 532h535l-225 583q-22 54-43 135-11-41-21-75t-21-61L414 532Zm106 1250q32 0 48-6t36-27l211-203H676q-21 0-33 3t-29 16l-295 217h201Z"/><glyph unicode="Á" glyph-name="Aacute" horiz-adv-x="1360" d="M1353 0h-150q-26 0-42 13t-24 33l-134 346H360L226 46q-7-18-24-32T160 0H10l573 1433h197L1353 0ZM414 532h535l-225 583q-22 54-43 135-11-41-21-75t-21-61L414 532Zm607 1250-294-216q-17-12-30-16t-34-4H525l211 203q10 10 18 16t18 10 20 5 28 2h201Z"/><glyph unicode="Â" glyph-name="Acircumflex" horiz-adv-x="1360" d="M1353 0h-150q-26 0-42 13t-24 33l-134 346H360L226 46q-7-18-24-32T160 0H10l573 1433h197L1353 0ZM414 532h535l-225 583q-22 54-43 135-11-41-21-75t-21-61L414 532Zm592 1014H871q-12 0-26 3t-23 10l-130 95q-8 4-12 8-8-6-12-8l-130-95q-9-6-23-9t-26-4H354l238 210h176l238-210Z"/><glyph unicode="Ã" glyph-name="Atilde" horiz-adv-x="1360" d="M1353 0h-150q-26 0-42 13t-24 33l-134 346H360L226 46q-7-18-24-32T160 0H10l573 1433h197L1353 0ZM414 532h535l-225 583q-22 54-43 135-11-41-21-75t-21-61L414 532Zm387 1131q35 0 53 20t20 58h98q0-43-11-79t-32-62-52-41-71-15q-35 0-67 13t-61 28-56 29-50 13q-34 0-52-21t-20-58H400q0 43 11 79t33 63 53 41 71 15q35 0 67-13t61-28 55-29 50-13Z"/><glyph unicode="Ä" glyph-name="Adieresis" horiz-adv-x="1360" d="M1353 0h-150q-26 0-42 13t-24 33l-134 346H360L226 46q-7-18-24-32T160 0H10l573 1433h197L1353 0ZM414 532h535l-225 583q-22 54-43 135-11-41-21-75t-21-61L414 532Zm164 1134q0-22-9-41t-24-35-35-23-44-9q-21 0-40 8t-35 24-24 34-9 42q0 23 9 43t24 36 34 24 41 9q23 0 43-9t36-24 24-35 9-44Zm426 0q0-22-9-41t-24-35-35-23-42-9q-23 0-43 8t-35 24-23 34-9 42q0 23 8 43t24 36 35 24 43 9q22 0 42-9t35-24 24-35 9-44Z"/><glyph unicode="Å" glyph-name="Aring" horiz-adv-x="1360" d="M1353 0h-150q-26 0-42 13t-24 33l-134 346H360L226 46q-7-18-24-32T160 0H10l573 1433h197L1353 0ZM414 532h535l-225 583q-22 54-43 135-11-41-21-75t-21-61L414 532Zm75 1127q0 39 15 72t41 56 60 37 72 13q39 0 73-13t61-36 42-57 15-72q0-38-15-70t-41-55-61-36-74-13q-38 0-72 13t-59 36-41 55-16 70Zm89 0q0-43 27-71t74-29q45 0 72 28t28 72q0 45-27 73t-73 28q-47 0-74-28t-27-73Z"/><glyph unicode="Æ" glyph-name="AE" horiz-adv-x="1858" d="M733 1433h1021v-158h-749l60-476h559V647h-540l61-489h609V0H982l-49 392H377L198 45q-11-20-29-32T124 0H-24l757 1433ZM450 532h465l-94 753q-12-41-26-75t-29-66L450 532Z"/><glyph unicode="Ç" glyph-name="Ccedilla" horiz-adv-x="1370" d="M643-247q6 0 14-3t19-8 27-8 37-4q42 0 63 16t22 43q0 19-11 32t-31 22-51 15-68 11l36 118Q561-1 448 57T256 211 133 435 90 716q0 162 52 297t148 232 227 150 293 54q158 0 272-49t204-133l-63-89q-7-10-16-16t-26-7q-13 0-27 9t-35 24-47 30-64 30-86 23-113 10q-115 0-210-39t-165-113-107-178-39-235q0-134 38-239t105-177 158-111 196-38q64 0 115 7t94 24 81 40 76 59q17 15 33 15t29-13l76-83q-83-97-199-153T811-15l-16-55q90-20 130-54t41-89q0-32-16-57t-44-44-69-27-88-10q-41 0-78 8t-68 23l17 55q6 18 23 18Z"/><glyph unicode="È" glyph-name="Egrave" horiz-adv-x="1162" d="M1057 1433v-158H369V799h557V647H369V158h688V0H174v1433h883Zm-589 349q32 0 48-6t36-27l211-203H624q-21 0-33 3t-29 16l-295 217h201Z"/><glyph unicode="É" glyph-name="Eacute" horiz-adv-x="1162" d="M1057 1433v-158H369V799h557V647H369V158h688V0H174v1433h883Zm-88 349-294-216q-17-12-30-16t-34-4H473l211 203q10 10 18 16t18 10 20 5 28 2h201Z"/><glyph unicode="Ê" glyph-name="Ecircumflex" horiz-adv-x="1162" d="M1057 1433v-158H369V799h557V647H369V158h688V0H174v1433h883Zm-103 113H819q-12 0-26 3t-23 10l-130 95q-8 4-12 8-8-6-12-8l-130-95q-9-6-23-9t-26-4H302l238 210h176l238-210Z"/><glyph unicode="Ë" glyph-name="Edieresis" horiz-adv-x="1162" d="M1057 1433v-158H369V799h557V647H369V158h688V0H174v1433h883Zm-531 233q0-22-9-41t-24-35-35-23-44-9q-21 0-40 8t-35 24-24 34-9 42q0 23 9 43t24 36 34 24 41 9q23 0 43-9t36-24 24-35 9-44Zm426 0q0-22-9-41t-24-35-35-23-42-9q-23 0-43 8t-35 24-23 34-9 42q0 23 8 43t24 36 35 24 43 9q22 0 42-9t35-24 24-35 9-44Z"/><glyph unicode="Ì" glyph-name="Igrave" horiz-adv-x="614" d="M404 0H210v1433h194V0Zm1 1782q32 0 48-6t36-27l211-203H561q-21 0-33 3t-29 16l-295 217h201Z"/><glyph unicode="Í" glyph-name="Iacute" horiz-adv-x="614" d="M404 0H210v1433h194V0Zm502 1782-294-216q-17-12-30-16t-34-4H410l211 203q10 10 18 16t18 10 20 5 28 2h201Z"/><glyph unicode="Î" glyph-name="Icircumflex" horiz-adv-x="614" d="M404 0H210v1433h194V0Zm231 1546H500q-12 0-26 3t-23 10l-130 95q-8 4-12 8-8-6-12-8l-130-95q-9-6-23-9t-26-4H-17l238 210h176l238-210Z"/><glyph unicode="Ï" glyph-name="Idieresis" horiz-adv-x="614" d="M404 0H210v1433h194V0ZM206 1666q0-22-9-41t-24-35-35-23-44-9q-21 0-40 8t-35 24-24 34-9 42q0 23 9 43t24 36 34 24 41 9q23 0 43-9t36-24 24-35 9-44Zm426 0q0-22-9-41t-24-35-35-23-42-9q-23 0-43 8t-35 24-23 34-9 42q0 23 8 43t24 36 35 24 43 9q22 0 42-9t35-24 24-35 9-44Z"/><glyph unicode="Ð" glyph-name="Eth" horiz-adv-x="1578" d="M50 780h197v653h535q158 0 288-51t224-146 144-227 51-293q0-161-51-293t-144-226-223-145T782 0H247v666H50v114Zm1240-64q0 132-36 236t-102 176-160 110-210 38H441V780h381V666H441V157h341q116 0 210 38t160 109 102 176 36 236Z"/><glyph unicode="Ñ" glyph-name="Ntilde" horiz-adv-x="1512" d="M274 1433q26 0 38-6t29-27l830-1080q-3 26-4 50t-1 48v1015h170V0h-98q-23 0-38 8t-31 27L340 1114q2-25 3-49t1-44V0H174v1433h100Zm627 230q35 0 53 20t20 58h98q0-43-11-79t-32-62-52-41-71-15q-35 0-67 13t-61 28-56 29-50 13q-34 0-52-21t-20-58H500q0 43 11 79t33 63 53 41 71 15q35 0 67-13t61-28 55-29 50-13Z"/><glyph unicode="Ò" glyph-name="Ograve" horiz-adv-x="1596" d="M1505 716q0-161-51-295t-144-232-223-150-289-54q-158 0-288 53T287 189 143 420 92 716q0 161 51 295t144 232 223 152 288 54q158 0 288-54t224-151 144-232 51-296Zm-199 0q0 132-36 237t-102 177-160 112-210 39q-115 0-209-39t-160-111-103-178-36-237q0-132 36-236t102-177 161-111 209-39q116 0 210 38t160 111 102 177 36 237ZM640 1782q32 0 48-6t36-27l211-203H796q-21 0-33 3t-29 16l-295 217h201Z"/><glyph unicode="Ó" glyph-name="Oacute" horiz-adv-x="1596" d="M1505 716q0-161-51-295t-144-232-223-150-289-54q-158 0-288 53T287 189 143 420 92 716q0 161 51 295t144 232 223 152 288 54q158 0 288-54t224-151 144-232 51-296Zm-199 0q0 132-36 237t-102 177-160 112-210 39q-115 0-209-39t-160-111-103-178-36-237q0-132 36-236t102-177 161-111 209-39q116 0 210 38t160 111 102 177 36 237Zm-165 1066-294-216q-17-12-30-16t-34-4H645l211 203q10 10 18 16t18 10 20 5 28 2h201Z"/><glyph unicode="Ô" glyph-name="Ocircumflex" horiz-adv-x="1596" d="M1505 716q0-161-51-295t-144-232-223-150-289-54q-158 0-288 53T287 189 143 420 92 716q0 161 51 295t144 232 223 152 288 54q158 0 288-54t224-151 144-232 51-296Zm-199 0q0 132-36 237t-102 177-160 112-210 39q-115 0-209-39t-160-111-103-178-36-237q0-132 36-236t102-177 161-111 209-39q116 0 210 38t160 111 102 177 36 237Zm-180 830H991q-12 0-26 3t-23 10l-130 95q-8 4-12 8-8-6-12-8l-130-95q-9-6-23-9t-26-4H474l238 210h176l238-210Z"/><glyph unicode="Õ" glyph-name="Otilde" horiz-adv-x="1596" d="M1505 716q0-161-51-295t-144-232-223-150-289-54q-158 0-288 53T287 189 143 420 92 716q0 161 51 295t144 232 223 152 288 54q158 0 288-54t224-151 144-232 51-296Zm-199 0q0 132-36 237t-102 177-160 112-210 39q-115 0-209-39t-160-111-103-178-36-237q0-132 36-236t102-177 161-111 209-39q116 0 210 38t160 111 102 177 36 237Zm-385 947q35 0 53 20t20 58h98q0-43-11-79t-32-62-52-41-71-15q-35 0-67 13t-61 28-56 29-50 13q-34 0-52-21t-20-58H520q0 43 11 79t33 63 53 41 71 15q35 0 67-13t61-28 55-29 50-13Z"/><glyph unicode="Ö" glyph-name="Odieresis" horiz-adv-x="1596" d="M1505 716q0-161-51-295t-144-232-223-150-289-54q-158 0-288 53T287 189 143 420 92 716q0 161 51 295t144 232 223 152 288 54q158 0 288-54t224-151 144-232 51-296Zm-199 0q0 132-36 237t-102 177-160 112-210 39q-115 0-209-39t-160-111-103-178-36-237q0-132 36-236t102-177 161-111 209-39q116 0 210 38t160 111 102 177 36 237Zm-608 950q0-22-9-41t-24-35-35-23-44-9q-21 0-40 8t-35 24-24 34-9 42q0 23 9 43t24 36 34 24 41 9q23 0 43-9t36-24 24-35 9-44Zm426 0q0-22-9-41t-24-35-35-23-42-9q-23 0-43 8t-35 24-23 34-9 42q0 23 8 43t24 36 35 24 43 9q22 0 42-9t35-24 24-35 9-44Z"/><glyph unicode="×" glyph-name="multiply" horiz-adv-x="1160" d="M1017 1014 673 670l354-353-95-96-354 354-357-356-95 96 356 356-345 345 95 96 345-346 344 344 96-96Z"/><glyph unicode="Ø" glyph-name="Oslash" horiz-adv-x="1596" d="M1505 716q0-161-51-295t-144-232-223-150-289-54Q690-15 596 9T423 82L323-54q-22-29-51-42t-58-13h-78l191 260q-112 98-173 242T92 716q0 161 51 295t144 232 223 152 288 54q115 0 215-29t183-83l82 111q20 27 36 38t48 12h100l-172-235q103-98 159-237t56-310Zm-1215 0q0-135 37-240t107-179l659 899q-60 42-134 63t-161 22q-115 0-209-39t-160-111-103-178-36-237Zm1016 0q0 126-32 226t-93 173L526 223q116-70 272-70 116 0 210 38t160 111 102 177 36 237Z"/><glyph unicode="Ù" glyph-name="Ugrave" horiz-adv-x="1460" d="M731 154q89 0 159 30t118 84 74 129 26 165v871h193V562q0-124-39-230t-113-183T969 27 731-17q-132 0-238 44T313 148 200 332t-40 230v871h193V563q0-90 25-165t74-129 119-84 160-31ZM570 1782q32 0 48-6t36-27l211-203H726q-21 0-33 3t-29 16l-295 217h201Z"/><glyph unicode="Ú" glyph-name="Uacute" horiz-adv-x="1460" d="M731 154q89 0 159 30t118 84 74 129 26 165v871h193V562q0-124-39-230t-113-183T969 27 731-17q-132 0-238 44T313 148 200 332t-40 230v871h193V563q0-90 25-165t74-129 119-84 160-31Zm340 1628-294-216q-17-12-30-16t-34-4H575l211 203q10 10 18 16t18 10 20 5 28 2h201Z"/><glyph unicode="Û" glyph-name="Ucircumflex" horiz-adv-x="1460" d="M731 154q89 0 159 30t118 84 74 129 26 165v871h193V562q0-124-39-230t-113-183T969 27 731-17q-132 0-238 44T313 148 200 332t-40 230v871h193V563q0-90 25-165t74-129 119-84 160-31Zm325 1392H921q-12 0-26 3t-23 10l-130 95q-8 4-12 8-8-6-12-8l-130-95q-9-6-23-9t-26-4H404l238 210h176l238-210Z"/><glyph unicode="Ü" glyph-name="Udieresis" horiz-adv-x="1460" d="M731 154q89 0 159 30t118 84 74 129 26 165v871h193V562q0-124-39-230t-113-183T969 27 731-17q-132 0-238 44T313 148 200 332t-40 230v871h193V563q0-90 25-165t74-129 119-84 160-31ZM628 1666q0-22-9-41t-24-35-35-23-44-9q-21 0-40 8t-35 24-24 34-9 42q0 23 9 43t24 36 34 24 41 9q23 0 43-9t36-24 24-35 9-44Zm426 0q0-22-9-41t-24-35-35-23-42-9q-23 0-43 8t-35 24-23 34-9 42q0 23 8 43t24 36 35 24 43 9q22 0 42-9t35-24 24-35 9-44Z"/><glyph unicode="Ý" glyph-name="Yacute" horiz-adv-x="1258" d="M726 570V0H533v570L8 1433h170q26 0 41-13t26-32l328-557q20-35 33-66t25-61q11 31 24 62t33 65l327 557q9 16 24 30t41 15h172L726 570Zm245 1212-294-216q-17-12-30-16t-34-4H475l211 203q10 10 18 16t18 10 20 5 28 2h201Z"/><glyph unicode="Þ" glyph-name="Thorn" horiz-adv-x="1222" d="M387 272V0H194v1433h193v-264h230q136 0 236-31t167-90 98-140 33-183q0-100-35-183t-102-143-168-93-229-34H387Zm0 154h230q83 0 146 22t107 61 65 95 22 121q0 137-84 214t-256 77H387V426Z"/><glyph unicode="ß" glyph-name="germandbls" horiz-adv-x="1218" d="M673 1454q103 0 178-30t125-76 72-102 24-106q0-60-21-103t-54-76-69-58-70-49-53-49-22-58q0-39 26-65t67-48 86-46 87-59 66-86 27-129q0-78-28-139t-79-103T918 7 771-16q-97 0-176 34t-139 89l41 68q8 13 19 20t29 7q18 0 38-14t47-31 65-31 91-14q44 0 79 13t59 37 38 55 13 69q0 56-28 91t-70 60-91 47-91 50-70 70-28 108q0 53 22 92t56 71 73 59 72 57 56 65 23 84q0 32-12 64t-41 59-72 42-108 17q-68 0-123-21t-95-63-61-105-22-147V0H186v992q0 104 34 189t99 146 154 94 200 33Z"/><glyph unicode="à" glyph-name="agrave" horiz-adv-x="1014" d="M890 0h-79q-26 0-42 8t-21 34l-20 94q-40-36-78-64t-80-48-89-30-106-10q-59 0-110 16t-90 50-60 83-23 120q0 60 33 115t106 99 193 70 291 32v79q0 118-50 178t-150 61q-65 0-109-16t-77-37-56-37-47-17q-18 0-31 9t-22 24l-32 57q84 81 181 121t215 40q85 0 151-28t111-78 68-121 23-156V0ZM428 109q47 0 86 9t73 27 66 43 62 57v211q-123-4-209-19t-140-41-78-59-25-76q0-40 13-69t35-47 52-27 65-9Zm0 1340q33 0 49-10t30-34l149-242H554q-21 0-34 6t-27 22l-234 258h169Z"/><glyph unicode="á" glyph-name="aacute" horiz-adv-x="1014" d="M890 0h-79q-26 0-42 8t-21 34l-20 94q-40-36-78-64t-80-48-89-30-106-10q-59 0-110 16t-90 50-60 83-23 120q0 60 33 115t106 99 193 70 291 32v79q0 118-50 178t-150 61q-65 0-109-16t-77-37-56-37-47-17q-18 0-31 9t-22 24l-32 57q84 81 181 121t215 40q85 0 151-28t111-78 68-121 23-156V0ZM428 109q47 0 86 9t73 27 66 43 62 57v211q-123-4-209-19t-140-41-78-59-25-76q0-40 13-69t35-47 52-27 65-9Zm390 1340-233-258q-14-15-27-21t-35-7H417l148 242q14 23 30 33t49 11h174Z"/><glyph unicode="â" glyph-name="acircumflex" horiz-adv-x="1014" d="M890 0h-79q-26 0-42 8t-21 34l-20 94q-40-36-78-64t-80-48-89-30-106-10q-59 0-110 16t-90 50-60 83-23 120q0 60 33 115t106 99 193 70 291 32v79q0 118-50 178t-150 61q-65 0-109-16t-77-37-56-37-47-17q-18 0-31 9t-22 24l-32 57q84 81 181 121t215 40q85 0 151-28t111-78 68-121 23-156V0ZM428 109q47 0 86 9t73 27 66 43 62 57v211q-123-4-209-19t-140-41-78-59-25-76q0-40 13-69t35-47 52-27 65-9Zm405 1060H714q-21 0-40 14l-128 126-17 17-16-17-129-126q-6-5-17-9t-23-5H221l223 264h166l223-264Z"/><glyph unicode="ã" glyph-name="atilde" horiz-adv-x="1014" d="M890 0h-79q-26 0-42 8t-21 34l-20 94q-40-36-78-64t-80-48-89-30-106-10q-59 0-110 16t-90 50-60 83-23 120q0 60 33 115t106 99 193 70 291 32v79q0 118-50 178t-150 61q-65 0-109-16t-77-37-56-37-47-17q-18 0-31 9t-22 24l-32 57q84 81 181 121t215 40q85 0 151-28t111-78 68-121 23-156V0ZM428 109q47 0 86 9t73 27 66 43 62 57v211q-123-4-209-19t-140-41-78-59-25-76q0-40 13-69t35-47 52-27 65-9Zm210 1216q36 0 55 21t21 65h108q0-47-12-86t-36-68-56-43-73-16q-35 0-65 14t-58 32-51 31-47 15q-72 0-74-88H239q0 48 13 87t37 68 57 44 72 16q35 0 65-14t58-32 50-31 47-15Z"/><glyph unicode="ä" glyph-name="adieresis" horiz-adv-x="1014" d="M890 0h-79q-26 0-42 8t-21 34l-20 94q-40-36-78-64t-80-48-89-30-106-10q-59 0-110 16t-90 50-60 83-23 120q0 60 33 115t106 99 193 70 291 32v79q0 118-50 178t-150 61q-65 0-109-16t-77-37-56-37-47-17q-18 0-31 9t-22 24l-32 57q84 81 181 121t215 40q85 0 151-28t111-78 68-121 23-156V0ZM428 109q47 0 86 9t73 27 66 43 62 57v211q-123-4-209-19t-140-41-78-59-25-76q0-40 13-69t35-47 52-27 65-9Zm32 1180q0-23-9-43t-25-35-36-24-44-9q-22 0-42 9t-35 24-25 35-9 43q0 23 9 44t24 36 36 25 42 9q23 0 43-9t37-24 25-37 9-44Zm359 0q0-23-9-43t-24-35-36-24-44-9q-23 0-43 9t-36 24-24 35-9 43q0 23 9 44t24 36 35 25 44 9q23 0 43-9t36-24 25-37 9-44Z"/><glyph unicode="å" glyph-name="aring" horiz-adv-x="1014" d="M890 0h-79q-26 0-42 8t-21 34l-20 94q-40-36-78-64t-80-48-89-30-106-10q-59 0-110 16t-90 50-60 83-23 120q0 60 33 115t106 99 193 70 291 32v79q0 118-50 178t-150 61q-65 0-109-16t-77-37-56-37-47-17q-18 0-31 9t-22 24l-32 57q84 81 181 121t215 40q85 0 151-28t111-78 68-121 23-156V0ZM428 109q47 0 86 9t73 27 66 43 62 57v211q-123-4-209-19t-140-41-78-59-25-76q0-40 13-69t35-47 52-27 65-9ZM328 1315q0 42 16 76t43 59 64 38 76 14q41 0 77-13t65-39 44-59 16-76q0-41-16-75t-44-58-64-37-78-14q-40 0-76 13t-63 38-44 58-16 75Zm100 0q0-44 27-72t74-28q45 0 72 28t28 72q0 45-27 73t-73 28q-47 0-74-28t-27-73Z"/><glyph unicode="æ" glyph-name="ae" horiz-adv-x="1632" d="M1166 1029q82 0 152-32t122-93 81-148 30-200q0-41-8-55t-33-15H883q4-91 27-158t61-113 91-67 118-22q69 0 115 14t76 33 50 32 35 15q14 0 23-4t15-13l47-61q-33-40-76-69t-93-49-103-28-105-10q-117 0-212 56T801 215q-27-62-70-106t-97-72T522-3 403-16q-69 0-126 17t-98 53-64 88-23 125q0 60 33 118t106 104 193 75 291 34v50q0 118-50 181t-150 63q-65 0-109-17t-77-39-56-38-47-18q-18 0-31 9t-22 24l-32 57q84 81 174 121t204 40q120 0 193-51t106-142q54 88 140 139t208 52ZM715 486q-123-5-209-22t-140-46-78-64-25-78q0-87 50-127t131-40q57 0 106 18t86 55 58 92 21 129v83Zm444 412q-61 0-109-20t-82-60-55-95-28-126h508q0 65-15 120t-46 96-73 62-100 23Z"/><glyph unicode="ç" glyph-name="ccedilla" horiz-adv-x="934" d="M400-247q6 0 14-3t19-8 27-8 37-4q42 0 63 16t22 43q0 19-11 32t-31 22-51 15-68 11l37 121Q375 1 305 40T183 146t-80 157-29 204q0 113 31 209t92 165 150 109 204 39q106 0 188-34t145-98l-47-64q-8-11-16-17t-23-6q-15 0-32 12t-45 28-65 27-95 13q-74 0-131-26t-95-77-58-121-20-159q0-92 21-163t59-120 92-74 123-26q65 0 107 15t70 35 46 34 36 16q11 0 19-4t15-13l50-65Q836 70 751 33T569-12l-17-58q90-20 130-54t41-89q0-32-16-57t-44-44-69-27-88-10q-41 0-78 8t-68 23l17 55q6 18 23 18Z"/><glyph unicode="è" glyph-name="egrave" horiz-adv-x="1048" d="M547 1029q91 0 168-30t133-88 87-142 32-193q0-42-9-56t-34-14H250q2-96 26-167t66-118 100-71 130-24q67 0 115 15t84 34 58 33 41 16q22 0 34-17l50-65q-33-40-79-69t-98-49T668-4 557-14q-105 0-193 35T211 125 110 295 74 527q0 106 32 198t94 159 149 106 198 39Zm4-131q-129 0-203-74t-92-207h551q0 62-17 113t-50 89-80 58-109 21Zm-100 551q33 0 49-10t30-34l149-242H577q-21 0-34 6t-27 22l-234 258h169Z"/><glyph unicode="é" glyph-name="eacute" horiz-adv-x="1048" d="M547 1029q91 0 168-30t133-88 87-142 32-193q0-42-9-56t-34-14H250q2-96 26-167t66-118 100-71 130-24q67 0 115 15t84 34 58 33 41 16q22 0 34-17l50-65q-33-40-79-69t-98-49T668-4 557-14q-105 0-193 35T211 125 110 295 74 527q0 106 32 198t94 159 149 106 198 39Zm4-131q-129 0-203-74t-92-207h551q0 62-17 113t-50 89-80 58-109 21Zm290 551-233-258q-14-15-27-21t-35-7H440l148 242q14 23 30 33t49 11h174Z"/><glyph unicode="ê" glyph-name="ecircumflex" horiz-adv-x="1048" d="M547 1029q91 0 168-30t133-88 87-142 32-193q0-42-9-56t-34-14H250q2-96 26-167t66-118 100-71 130-24q67 0 115 15t84 34 58 33 41 16q22 0 34-17l50-65q-33-40-79-69t-98-49T668-4 557-14q-105 0-193 35T211 125 110 295 74 527q0 106 32 198t94 159 149 106 198 39Zm4-131q-129 0-203-74t-92-207h551q0 62-17 113t-50 89-80 58-109 21Zm305 271H737q-21 0-40 14l-128 126-17 17-16-17-129-126q-6-5-17-9t-23-5H244l223 264h166l223-264Z"/><glyph unicode="ë" glyph-name="edieresis" horiz-adv-x="1048" d="M547 1029q91 0 168-30t133-88 87-142 32-193q0-42-9-56t-34-14H250q2-96 26-167t66-118 100-71 130-24q67 0 115 15t84 34 58 33 41 16q22 0 34-17l50-65q-33-40-79-69t-98-49T668-4 557-14q-105 0-193 35T211 125 110 295 74 527q0 106 32 198t94 159 149 106 198 39Zm4-131q-129 0-203-74t-92-207h551q0 62-17 113t-50 89-80 58-109 21Zm-68 391q0-23-9-43t-25-35-36-24-44-9q-22 0-42 9t-35 24-25 35-9 43q0 23 9 44t24 36 36 25 42 9q23 0 43-9t37-24 25-37 9-44Zm359 0q0-23-9-43t-24-35-36-24-44-9q-23 0-43 9t-36 24-24 35-9 43q0 23 9 44t24 36 35 25 44 9q23 0 43-9t36-24 25-37 9-44Z"/><glyph unicode="ì" glyph-name="igrave" horiz-adv-x="512" d="M344 1013V0H166v1013h178Zm74 436q33 0 49-10t30-34l149-242H544q-21 0-34 6t-27 22l-234 258h169Z"/><glyph unicode="í" glyph-name="iacute" horiz-adv-x="512" d="M344 1013V0H166v1013h178Zm464 436-233-258q-14-15-27-21t-35-7H407l148 242q14 23 30 33t49 11h174Z"/><glyph unicode="î" glyph-name="icircumflex" horiz-adv-x="512" d="M344 1013V0H166v1013h178Zm478 156H703q-21 0-40 14l-128 126-17 17-16-17-129-126q-6-5-17-9t-23-5H210l223 264h166l223-264Z"/><glyph unicode="ï" glyph-name="idieresis" horiz-adv-x="512" d="M344 1013V0H166v1013h178Zm106 276q0-23-9-43t-25-35-36-24-44-9q-22 0-42 9t-35 24-25 35-9 43q0 23 9 44t24 36 36 25 42 9q23 0 43-9t37-24 25-37 9-44Zm359 0q0-23-9-43t-24-35-36-24-44-9q-23 0-43 9t-36 24-24 35-9 43q0 23 9 44t24 36 35 25 44 9q23 0 43-9t36-24 25-37 9-44Z"/><glyph unicode="ð" glyph-name="eth" horiz-adv-x="1106" d="M417 1065q-4 7-6 13t-3 13q0 22 23 37l103 72q-45 20-95 37t-108 31q-18 5-30 18t-13 37q0 15 5 29l20 62q96-16 186-46t171-78l167 122 35-57q8-13 8-24 0-21-22-37l-97-67q60-49 109-111t85-139 54-170 20-203q0-143-31-257t-92-194T753 30 541-13q-98 0-183 33t-147 94-99 151-36 201q0 94 31 177t89 147 140 100 187 37q100 0 188-43t154-130q-20 136-78 231t-153 159l-184-135-33 56Zm128-940q71 0 128 27t98 81 64 137 26 194q-16 43-42 83t-63 72-87 50-112 19q-75 0-131-25t-95-68-57-103-20-128q0-81 23-144t63-107 92-65 113-23Z"/><glyph unicode="ñ" glyph-name="ntilde" horiz-adv-x="1112" d="M146 0v1013h106q38 0 48-37l14-110q66 73 147 118t189 45q83 0 146-27t106-78 65-122 22-157V0H811v645q0 115-52 178t-161 64q-79 0-147-38T324 746V0H146Zm529 1325q36 0 55 21t21 65h108q0-47-12-86t-36-68-56-43-73-16q-35 0-65 14t-58 32-51 31-47 15q-72 0-74-88H276q0 48 13 87t37 68 57 44 72 16q35 0 65-14t58-32 50-31 47-15Z"/><glyph unicode="ò" glyph-name="ograve" horiz-adv-x="1112" d="M556 1029q111 0 200-37t152-105 96-164 34-216q0-120-33-216t-96-164T757 23 556-14q-111 0-200 36T203 127t-97 164-34 216q0 119 34 215t97 165 152 105 201 37Zm0-904q150 0 224 100t74 281q0 181-74 282T556 889q-76 0-132-26t-93-75-56-120-19-162q0-90 18-161t56-119 94-75 132-26Zm-98 1324q33 0 49-10t30-34l149-242H584q-21 0-34 6t-27 22l-234 258h169Z"/><glyph unicode="ó" glyph-name="oacute" horiz-adv-x="1112" d="M556 1029q111 0 200-37t152-105 96-164 34-216q0-120-33-216t-96-164T757 23 556-14q-111 0-200 36T203 127t-97 164-34 216q0 119 34 215t97 165 152 105 201 37Zm0-904q150 0 224 100t74 281q0 181-74 282T556 889q-76 0-132-26t-93-75-56-120-19-162q0-90 18-161t56-119 94-75 132-26Zm292 1324-233-258q-14-15-27-21t-35-7H447l148 242q14 23 30 33t49 11h174Z"/><glyph unicode="ô" glyph-name="ocircumflex" horiz-adv-x="1112" d="M556 1029q111 0 200-37t152-105 96-164 34-216q0-120-33-216t-96-164T757 23 556-14q-111 0-200 36T203 127t-97 164-34 216q0 119 34 215t97 165 152 105 201 37Zm0-904q150 0 224 100t74 281q0 181-74 282T556 889q-76 0-132-26t-93-75-56-120-19-162q0-90 18-161t56-119 94-75 132-26Zm307 1044H744q-21 0-40 14l-128 126-17 17-16-17-129-126q-6-5-17-9t-23-5H251l223 264h166l223-264Z"/><glyph unicode="õ" glyph-name="otilde" horiz-adv-x="1112" d="M556 1029q111 0 200-37t152-105 96-164 34-216q0-120-33-216t-96-164T757 23 556-14q-111 0-200 36T203 127t-97 164-34 216q0 119 34 215t97 165 152 105 201 37Zm0-904q150 0 224 100t74 281q0 181-74 282T556 889q-76 0-132-26t-93-75-56-120-19-162q0-90 18-161t56-119 94-75 132-26Zm112 1200q36 0 55 21t21 65h108q0-47-12-86t-36-68-56-43-73-16q-35 0-65 14t-58 32-51 31-47 15q-72 0-74-88H269q0 48 13 87t37 68 57 44 72 16q35 0 65-14t58-32 50-31 47-15Z"/><glyph unicode="ö" glyph-name="odieresis" horiz-adv-x="1112" d="M556 1029q111 0 200-37t152-105 96-164 34-216q0-120-33-216t-96-164T757 23 556-14q-111 0-200 36T203 127t-97 164-34 216q0 119 34 215t97 165 152 105 201 37Zm0-904q150 0 224 100t74 281q0 181-74 282T556 889q-76 0-132-26t-93-75-56-120-19-162q0-90 18-161t56-119 94-75 132-26Zm-66 1164q0-23-9-43t-25-35-36-24-44-9q-22 0-42 9t-35 24-25 35-9 43q0 23 9 44t24 36 36 25 42 9q23 0 43-9t37-24 25-37 9-44Zm359 0q0-23-9-43t-24-35-36-24-44-9q-23 0-43 9t-36 24-24 35-9 43q0 23 9 44t24 36 35 25 44 9q23 0 43-9t36-24 25-37 9-44Z"/><glyph unicode="÷" glyph-name="divide" horiz-adv-x="1160" d="M100 739h958V604H100v135Zm354 287q0 26 9 49t26 40 39 27 50 10q26 0 48-10t40-27 27-40 10-49q0-27-10-49t-27-40-39-26-49-10q-27 0-49 9t-39 27-26 39-10 50Zm0-712q0 26 9 49t26 40 39 27 50 10q26 0 48-10t40-27 27-40 10-49q0-27-10-49t-27-40-39-26-49-10q-27 0-49 9t-39 27-26 39-10 50Z"/><glyph unicode="ø" glyph-name="oslash" horiz-adv-x="1112" d="M912 884q61-68 94-163t33-214q0-120-33-216t-96-164T758 23 557-14q-76 0-141 17T296 52l-55-74q-22-29-51-41t-59-13H64l145 196q-66 69-101 166T73 507q0 119 34 215t97 165 152 105 201 37q79 0 146-19t124-54l68 91q20 27 36 38t48 12h90L912 884ZM246 506q0-160 59-257l436 590q-73 56-184 56-76 0-134-27t-97-77-60-122-20-163Zm311-386q75 0 132 26t97 77 60 121 20 162q0 151-52 247L381 168q70-48 176-48Z"/><glyph unicode="ù" glyph-name="ugrave" horiz-adv-x="1112" d="M300 1013V367q0-115 53-178t160-63q78 0 147 37t127 103v747h178V0H859q-38 0-48 37l-14 109Q731 73 649 29T461-16q-83 0-146 27T208 89t-64 121-22 157v646h178Zm152 436q33 0 49-10t30-34l149-242H578q-21 0-34 6t-27 22l-234 258h169Z"/><glyph unicode="ú" glyph-name="uacute" horiz-adv-x="1112" d="M300 1013V367q0-115 53-178t160-63q78 0 147 37t127 103v747h178V0H859q-38 0-48 37l-14 109Q731 73 649 29T461-16q-83 0-146 27T208 89t-64 121-22 157v646h178Zm542 436-233-258q-14-15-27-21t-35-7H441l148 242q14 23 30 33t49 11h174Z"/><glyph unicode="û" glyph-name="ucircumflex" horiz-adv-x="1112" d="M300 1013V367q0-115 53-178t160-63q78 0 147 37t127 103v747h178V0H859q-38 0-48 37l-14 109Q731 73 649 29T461-16q-83 0-146 27T208 89t-64 121-22 157v646h178Zm557 156H738q-21 0-40 14l-128 126-17 17-16-17-129-126q-6-5-17-9t-23-5H245l223 264h166l223-264Z"/><glyph unicode="ü" glyph-name="udieresis" horiz-adv-x="1112" d="M300 1013V367q0-115 53-178t160-63q78 0 147 37t127 103v747h178V0H859q-38 0-48 37l-14 109Q731 73 649 29T461-16q-83 0-146 27T208 89t-64 121-22 157v646h178Zm184 276q0-23-9-43t-25-35-36-24-44-9q-22 0-42 9t-35 24-25 35-9 43q0 23 9 44t24 36 36 25 42 9q23 0 43-9t37-24 25-37 9-44Zm359 0q0-23-9-43t-24-35-36-24-44-9q-23 0-43 9t-36 24-24 35-9 43q0 23 9 44t24 36 35 25 44 9q23 0 43-9t36-24 25-37 9-44Z"/><glyph unicode="ý" glyph-name="yacute" horiz-adv-x="1024" d="M443-299q-9-20-22-32t-42-12H247L432 59 14 1013h154q23 0 36-11t19-26l271-638q9-22 15-44t12-45q7 23 14 45t16 45l263 637q6 16 20 26t32 11h142L443-299Zm382 1748-233-258q-14-15-27-21t-35-7H424l148 242q14 23 30 33t49 11h174Z"/><glyph unicode="þ" glyph-name="thorn" horiz-adv-x="1104" d="M146-343v1816h178V866q63 74 145 118t187 45q87 0 158-33t121-98 77-162 27-223q0-112-30-208t-86-167T786 27 602-14q-95 0-161 34t-117 98v-461H146ZM597 887q-87 0-152-40T324 734V244q49-66 107-93t131-27q141 0 217 101t76 288q0 99-17 170t-51 116-81 67-109 21Z"/><glyph unicode="ÿ" glyph-name="ydieresis" horiz-adv-x="1024" d="M443-299q-9-20-22-32t-42-12H247L432 59 14 1013h154q23 0 36-11t19-26l271-638q9-22 15-44t12-45q7 23 14 45t16 45l263 637q6 16 20 26t32 11h142L443-299Zm24 1588q0-23-9-43t-25-35-36-24-44-9q-22 0-42 9t-35 24-25 35-9 43q0 23 9 44t24 36 36 25 42 9q23 0 43-9t37-24 25-37 9-44Zm359 0q0-23-9-43t-24-35-36-24-44-9q-23 0-43 9t-36 24-24 35-9 43q0 23 9 44t24 36 35 25 44 9q23 0 43-9t36-24 25-37 9-44Z"/><glyph unicode="–" glyph-name="endash" horiz-adv-x="1112" d="M156 655h800V525H156v130Z"/><glyph unicode="—" glyph-name="emdash" horiz-adv-x="1642" d="M156 655h1330V525H156v130Z"/><glyph unicode="‘" glyph-name="quoteleft" horiz-adv-x="424" d="M114 1012q-29 48-42 96t-14 97q0 90 44 172t125 152l55-34q8-5 10-11t3-12q0-14-10-24-16-20-31-42t-27-46-19-52-7-57q0-32 9-66t33-72q7-11 7-23 0-24-27-34l-109-44Z"/><glyph unicode="’" glyph-name="quoteright" horiz-adv-x="424" d="M271 1508q29-48 42-96t13-96q0-91-44-173T158 991l-55 34q-8 5-10 11t-3 12q0 14 10 24 16 19 31 41t27 47 19 52 7 57q0 32-9 66t-33 72q-7 11-7 22 0 24 27 35l109 44Z"/><glyph unicode="‚" glyph-name="quotesinglbase" horiz-adv-x="424" d="M271 241q29-48 42-96t13-96q0-91-44-173T158-276l-55 34q-8 5-10 11t-3 12q0 14 10 24 16 19 31 41t27 47 19 52 7 57q0 32-9 66t-33 72q-7 11-7 22 0 24 27 35l109 44Z"/><glyph unicode="“" glyph-name="quotedblleft" horiz-adv-x="728" d="M114 1012q-29 48-42 96t-14 97q0 90 44 172t125 152l55-34q8-5 10-11t3-12q0-14-10-24-16-20-31-42t-27-46-19-52-7-57q0-32 9-66t33-72q7-11 7-23 0-24-27-34l-109-44Zm304 0q-29 48-42 96t-14 97q0 90 44 172t125 152l55-34q8-5 10-11t3-12q0-14-10-24-16-20-31-42t-27-46-19-52-7-57q0-32 9-66t33-72q7-11 7-23 0-24-27-34l-109-44Z"/><glyph unicode="”" glyph-name="quotedblright" horiz-adv-x="728" d="M271 1508q29-48 42-96t13-96q0-91-44-173T158 991l-55 34q-8 5-10 11t-3 12q0 14 10 24 16 19 31 41t27 47 19 52 7 57q0 32-9 66t-33 72q-7 11-7 22 0 24 27 35l109 44Zm304 0q29-48 42-96t13-96q0-91-44-173T462 991l-55 34q-8 5-10 11t-3 12q0 14 10 24 16 19 31 41t27 47 19 52 7 57q0 32-9 66t-33 72q-7 11-7 22 0 24 27 35l109 44Z"/><glyph unicode="„" glyph-name="quotedblbase" horiz-adv-x="728" d="M271 241q29-48 42-96t13-96q0-91-44-173T158-276l-55 34q-8 5-10 11t-3 12q0 14 10 24 16 19 31 41t27 47 19 52 7 57q0 32-9 66t-33 72q-7 11-7 22 0 24 27 35l109 44Zm304 0q29-48 42-96t13-96q0-91-44-173T462-276l-55 34q-8 5-10 11t-3 12q0 14 10 24 16 19 31 41t27 47 19 52 7 57q0 32-9 66t-33 72q-7 11-7 22 0 24 27 35l109 44Z"/><glyph unicode="•" glyph-name="bullet" horiz-adv-x="1160" d="M208 595q0 77 29 145t80 118 117 80 144 30q77 0 145-29t118-80 80-119 30-145q0-77-29-144t-80-118-119-79-145-30q-76 0-143 29t-118 80-79 117-30 145Z"/><glyph unicode="‹" glyph-name="guilsinglleft" horiz-adv-x="632" d="M138 518v23l249 389 58-28q14-7 21-18t7-24q0-17-10-33L304 566q-14-24-28-37 15-14 28-36l159-261q5-8 7-17t3-17q0-28-28-41l-58-28-249 389Z"/><glyph unicode="›" glyph-name="guilsinglright" horiz-adv-x="632" d="M485 541v-23L236 129l-58 28q-28 13-28 41 0 17 10 34l159 261q13 24 27 36-12 11-27 37L160 827q-10 17-10 34 0 28 28 41l58 28 249-389Z"/></font>
</defs>
</svg>
