<svg xmlns="http://www.w3.org/2000/svg"><defs><font id="Nunito" horiz-adv-x="566"><font-face font-family="Nunito ExtraLight" ascent="1011" descent="-353" alphabetic="0"/><glyph horiz-adv-x="271"/><glyph unicode="!" horiz-adv-x="248" d="M125 203q-19 0-29 12t-13 34L53 631q-3 37 16 59t56 23q36 0 54-22t16-60l-30-382q-1-22-11-34t-29-12Zm0-208Q91-5 71 16T50 70q0 32 20 52t55 21q35 0 54-20t20-53q0-33-19-54T125-5Z"/><glyph unicode="&quot;" horiz-adv-x="448" d="M122 407q-18 0-31 13t-16 35L56 640q-3 31 16 52t50 21q20 0 35-9t24-26 6-38l-19-185q-2-22-14-35t-32-13Zm205 0q-18 0-31 13t-16 35l-19 185q-3 31 16 52t50 21q20 0 35-9t24-26 6-38l-19-185q-2-22-14-35t-32-13Z"/><glyph unicode="#" horiz-adv-x="600" d="M126-8Q103-8 95 6t-5 37l26 137 42-8H86q-15 0-25 4t-16 14-6 22q0 20 12 30t35 10h87l-45-9 45 228 31-10h-97q-15 0-25 5t-16 14-6 22q0 20 12 29t35 10h112l-36-9 28 139q5 22 17 32t33 10q21 0 30-13t5-38l-24-121h126l26 130q5 22 17 32t33 10q21 0 30-13t5-38l-26-130-30 9h61q15 0 25-4t16-13 6-22q0-19-12-30t-35-11h-77l35 10-45-228-31 9h97q15 0 25-4t16-14 6-22q0-19-12-29t-35-11H381l36 8-30-146q-4-22-16-32T338-8q-21 0-30 13t-6 38l26 129H202L175 34q-4-22-16-32T126-8Zm91 260h125l41 209H258l-41-209Z"/><glyph unicode="$" horiz-adv-x="600" d="M310-123q-22 0-36 14t-14 36v89l23-22q-69 2-122 18T70 49Q52 60 45 76t-5 34 12 29 27 16 37-8q28-16 73-30t110-15q50 0 81 12t45 33 15 48q0 22-10 38t-33 29-62 21l-106 23q-91 20-136 67T48 496q0 59 29 105t81 75 122 33l-20-15v84q0 21 14 35t36 15q21 0 35-14t15-36v-84l-21 16q43-1 94-17t89-45q15-12 20-27t1-30-15-25-27-11-38 10q-29 17-65 27t-86 11q-64 0-100-28t-37-75q0-34 22-54t75-33l109-24q96-21 141-66t45-120q0-58-29-102t-79-71T341-4l19 21v-90q0-21-14-35t-36-15Z"/><glyph unicode="%" horiz-adv-x="945" d="M329 8q-10-18-24-23t-29-3-25 14-12 26 8 34l369 640q10 18 24 24t29 3 24-15 12-26-7-33L329 8ZM222 284q-84 0-131 58T44 500q0 67 21 115t61 74 96 26q84 0 131-57t47-158q0-67-21-115t-61-75-96-26Zm0 84q24 0 41 14t26 44 9 74q0 67-20 99t-56 32q-24 0-41-14t-26-43-9-74q0-68 20-100t56-32ZM724-10q-84 0-131 58t-47 158q0 67 21 115t61 74 96 26q84 0 131-57t47-158q0-67-21-115t-61-75-96-26Zm0 84q24 0 41 14t26 43 9 75q0 67-20 99t-56 32q-24 0-41-14t-26-43-9-74q0-68 20-100t56-32Z"/><glyph unicode="&amp;" horiz-adv-x="726" d="M301-10q-75 0-130 24T87 80 57 180q0 34 9 63t28 55 45 48 61 43l34 20-18-27q-44 44-63 83t-20 82q0 50 24 88t68 59 103 21q82 0 130-41t48-113q0-38-15-72t-48-65-88-61l1 30 170-181h-27q13 22 23 48t17 57 12 64q4 25 17 37t37 13q26 0 39-14t10-42q-5-47-16-89t-29-79-38-68l-1 31 95-96q19-19 19-38T670 5 630-8q-22 0-36 8t-31 26l-62 65h29q-44-47-103-74T301-10Zm7 99q48 0 85 18t69 56l-3-32-206 213 52-5-29-17q-34-20-55-39t-30-42-10-51q0-47 33-74t94-27Zm20 537q-36 0-58-20t-22-56q0-19 6-35t21-36 41-48l-28 2q42 24 66 43t36 38 11 42q0 34-20 52t-53 18Z"/><glyph unicode="'" horiz-adv-x="243" d="M122 407q-18 0-31 13t-16 35L56 640q-3 31 16 52t50 21q20 0 35-9t24-26 6-38l-19-185q-2-22-14-35t-32-13Z"/><glyph unicode="(" horiz-adv-x="358" d="M217-163q-62 98-89 206t-28 220q0 74 12 147t38 143 67 136q11 18 29 22t35-2 25-25-2-47q-24-64-39-125t-23-123-8-126q0-65 8-126t24-122 38-126q10-28 2-46t-24-26-35-3-30 23Z"/><glyph unicode=")" horiz-adv-x="358" d="M141-163q-11-18-29-22t-36 2-24 26 2 46Q79-46 94 15t22 122 8 126q0 65-8 126T93 511 54 637q-10 28-2 46t25 26 35 3 29-23q61-97 89-206t28-220q0-74-12-147T208-27t-67-136Z"/><glyph unicode="*" horiz-adv-x="453" d="M126 358q-18 11-21 28t10 36l64 98 18-26-117-6q-23-1-37 9t-14 32q0 20 14 31t37 9l117-7-17-26-64 99q-13 20-10 37t21 27q17 11 34 3t27-29l46-96h-15l46 96q10 21 27 29t35-3q18-11 20-28t-10-37l-64-97-17 25 117 7q23 2 37-9t14-31q0-21-14-31t-37-10l-117 6 17 26 64-98q13-19 11-35t-21-28q-19-11-35-4t-27 29l-46 97h15l-47-97q-10-21-26-28t-35 2Z"/><glyph unicode="+" horiz-adv-x="600" d="M300 32q-22 0-34 12t-12 35v164H93q-21 0-33 11t-12 33q0 21 12 32t33 12h161v159q0 22 12 34t35 12q22 0 33-12t12-34V331h161q22 0 33-11t12-33q0-21-11-32t-34-12H346V79q0-22-11-34t-35-13Z"/><glyph unicode="," horiz-adv-x="248" d="M141-107q-13-16-27-18t-26 5-12 22 13 32q20 25 27 50t7 45l5-34Q93-5 72 15T50 70q0 32 20 52t54 21q35 0 55-23t20-68q0-24-4-49t-17-53-37-57Z"/><glyph unicode="-" horiz-adv-x="434" d="M111 218q-22 0-36 14t-15 36q0 22 14 36t37 14h213q21 0 35-14t15-36q0-21-14-35t-36-15H111Z"/><glyph unicode="." horiz-adv-x="248" d="M125-5Q91-5 71 16T50 70q0 32 20 52t55 21q35 0 54-20t20-53q0-33-19-54T125-5Z"/><glyph unicode="/" horiz-adv-x="313" d="M88-29q-6-19-19-27t-28-9-29 8-18 22 0 35l231 717q6 19 19 28t29 9 28-9 18-22 0-34L88-29Z"/><glyph unicode="0" horiz-adv-x="600" d="M300-10q-125 0-191 94T43 354q0 118 29 198t87 122 141 41q126 0 191-92t66-268q0-117-29-198T441 33 300-10Zm0 105q68 0 100 63t33 197q0 134-32 194t-101 61q-67 0-100-60t-33-195q0-134 33-197t100-63Z"/><glyph unicode="1" horiz-adv-x="600" d="M156 0q-26 0-40 14t-15 40q0 26 14 39t41 13h112v491h62l-147-89q-19-11-35-9t-28 14-16 28 2 32 26 28l138 83q20 12 40 20t37 9q21 0 35-11t14-38V106h102q26 0 40-13t15-39q0-26-14-40T498 0H156Z"/><glyph unicode="2" horiz-adv-x="600" d="M133 0q-32 0-46 14T72 57q0 17 9 33t26 34l201 214q46 48 66 87t20 80q0 50-31 76t-92 26q-34 0-68-9t-69-33q-18-12-33-10t-27 13-16 27 1 32 24 29q43 29 96 44t108 15q76 0 128-23t79-67 27-107q0-42-13-82t-41-81-72-87L207 72v34h294q27 0 41-13t14-39q0-26-14-40T501 0H133Z"/><glyph unicode="3" horiz-adv-x="600" d="M286-10q-54 0-112 14T73 46Q53 59 46 76t-4 32 15 27 29 13 39-9q41-22 79-31t78-10q44 0 74 12t45 36 16 58q0 50-33 74t-98 25h-64q-28 0-42 14t-15 39q0 25 14 39t43 14h52q38 0 65 12t42 36 15 56q0 46-30 70t-89 24q-37 0-69-8t-72-32q-18-11-34-9t-28 13-15 26 2 32 25 29q43 28 95 42t107 15q73 0 125-22t79-64 28-101q0-42-16-76t-45-59-70-34v12q72-12 112-59t40-119q0-62-31-108t-88-70-136-25Z"/><glyph unicode="4" horiz-adv-x="600" d="M413-8q-30 0-47 16t-17 48v78H102q-31 0-49 13t-19 41q0 16 8 35t31 50l274 397q14 21 31 32t39 11q26 0 43-15t17-49V240h49q29 0 43-13t15-40q0-26-14-39t-44-14h-49V56q0-31-17-47T413-8Zm-64 248v312h29L142 206v34h207Z"/><glyph unicode="5" horiz-adv-x="600" d="M306-10q-53 0-108 14T97 47Q78 59 72 75t-4 33 15 28 28 14 37-9q37-21 75-32t81-11q42 0 72 15t46 42 16 63q0 56-34 90t-93 35q-32 0-62-10t-59-37q-9-8-23-15t-30-8q-25 0-38 13t-13 36v327q0 27 14 41t42 15h329q27 0 41-13t15-40q0-25-14-39t-42-14H211V375h-33q26 35 69 54t94 19q67 0 116-28t77-79 28-118q0-69-31-121t-88-82-137-30Z"/><glyph unicode="6" horiz-adv-x="600" d="M326-10q-87 0-148 41T84 151 52 340q0 90 20 159t60 118 95 73 128 25q44 0 89-13t86-41q16-10 21-26t2-31-14-27-27-14-35 8q-34 20-64 28t-60 8q-58 0-98-27t-60-81-21-135v-75h-12q8 51 33 87t66 56 89 20q61 0 108-29t74-80 27-117q0-68-29-121t-82-84-122-31Zm-7 102q36 0 63 16t43 45 15 68q0 39-15 68t-42 45-64 17q-36 0-63-16t-42-46-16-68q0-38 15-67t43-46 63-16Z"/><glyph unicode="7" horiz-adv-x="600" d="M172-8q-23 0-38 11t-18 29 9 42l302 568v-44H103q-27 0-41 14t-15 39q0 26 14 40t42 14h387q27 0 44-14t17-40q0-22-6-38t-16-36L245 34q-11-22-28-32T172-8Z"/><glyph unicode="8" horiz-adv-x="600" d="M300-10q-82 0-140 23T70 82 38 190q0 50 20 88t57 63 82 30v-21q-64 14-102 61T56 525q0 60 30 102t85 65 129 23q75 0 130-22t85-65 30-103q0-44-17-81t-49-61-74-32v20q70-10 113-58t44-123q0-63-31-108t-90-68-141-24Zm0 100q71 0 107 27t36 82q0 54-36 81t-107 27q-70 0-106-27t-37-81q0-54 36-81t107-28Zm0 317q40 0 68 12t43 37 15 56q0 48-33 75t-93 28q-59 0-92-27t-33-76q0-49 33-77t92-28Z"/><glyph unicode="9" horiz-adv-x="600" d="M245-10q-43 0-89 13T70 44Q54 54 49 70t-2 31 14 27 27 14 35-8q34-20 64-28t60-8q58 0 98 27t60 81 21 135v75h12q-7-50-33-87t-66-56-89-20q-60 0-107 29t-75 80-27 117q0 69 29 122t83 83 121 31q88 0 149-41t93-119 32-190q0-90-20-159T468 88t-95-73-128-25Zm37 365q36 0 63 16t43 46 15 68q0 39-15 68t-42 45-64 16q-36 0-63-16t-42-45-16-68q0-38 15-67t43-46 63-17Z"/><glyph unicode=":" horiz-adv-x="248" d="M125-5Q91-5 71 16T50 70q0 32 20 52t55 21q35 0 54-20t20-53q0-33-19-54T125-5Zm0 351q-34 0-54 21t-21 53q0 33 20 53t55 21q35 0 54-20t20-54q0-32-19-53t-55-21Z"/><glyph unicode=";" horiz-adv-x="248" d="M141-107q-13-16-27-18t-26 5-12 22 13 32q20 25 27 50t7 45l5-34Q93-5 72 15T50 70q0 32 20 52t54 21q35 0 55-23t20-68q0-24-4-49t-17-53-37-57Zm-16 453q-34 0-54 21t-21 53q0 33 20 53t55 21q35 0 54-20t20-54q0-32-19-53t-55-21Z"/><glyph unicode="&lt;" horiz-adv-x="600" d="M498 53 98 222q-46 19-46 66 0 23 11 38t35 26l400 170q17 7 30 3t22-15 9-25-5-26-24-20L94 256v62l436-183q17-7 23-19t6-26-9-25-21-15-31 3Z"/><glyph unicode="=" horiz-adv-x="600" d="M93 343q-21 0-33 11t-12 33q0 21 12 32t33 12h414q22 0 33-11t12-33q0-21-11-32t-34-12H93Zm0-199q-21 0-33 11t-12 33q0 21 12 32t33 11h414q22 0 33-11t12-32q0-22-11-33t-34-11H93Z"/><glyph unicode="&gt;" horiz-adv-x="600" d="M103 53q-17-7-30-3T51 65t-9 24 6 26 23 20l436 183v-62L71 439q-16 7-23 19t-6 27 9 25 21 15 31-3l400-170q46-19 46-64 0-23-11-39t-35-27L103 53Z"/><glyph unicode="?" horiz-adv-x="459" d="M223 204q-19 0-29 12t-11 34q0 31 7 58t25 56 45 59q21 24 33 42t18 36 6 35q0 33-24 52t-68 19q-40 0-72-10t-66-30q-22-13-39-12t-29 13-14 27 5 33 29 31q41 27 94 41t100 15q63 0 110-21t74-58 27-87q0-31-9-58t-29-55-55-60q-31-28-49-51t-27-44-12-45q-1-14-11-23t-29-9ZM221-5q-34 0-54 21t-21 54q0 32 20 52t55 21q35 0 54-20t20-53q0-33-19-54T221-5Z"/><glyph unicode="@" horiz-adv-x="950" d="M486-165q-96 0-175 30T174-47 85 90 54 268q0 101 32 183t92 141 142 91 183 32q118 0 206-46t138-130 49-197q0-87-24-150t-68-98-102-35q-61 0-94 33t-36 94l31 10q-25-68-71-102T432 59q-80 0-124 50t-44 137q0 73 27 130t76 90 111 33q53 0 87-26t46-78h-17l9 54q7 43 52 43 23 0 34-13t7-38l-34-193q-3-16-4-29t-2-25q0-31 13-46t39-15q33 0 57 26t39 73 14 110q0 93-38 159T671 602t-169 36q-109 0-190-45T186 464t-45-196q0-111 42-191T303-45t183-43q66 0 119 15t97 46q18 13 33 10t24-17 6-29-21-29q-46-33-111-53t-147-20Zm-36 303q38 0 67 23t46 65 17 96q0 48-21 72t-65 25q-38 0-68-22t-47-60-17-90q0-53 23-81t65-28Z"/><glyph unicode="A" horiz-adv-x="744" d="M84-8Q60-8 46 3T28 32t7 42l264 585q13 29 31 41t43 13q23 0 41-12t32-42L711 74q11-23 8-42T702 3 665-8q-28 0-43 13t-28 42l-65 151 54-35H161l54 35-64-151q-13-29-27-42T84-8Zm287 574L231 233l-26 32h334l-25-32-141 333h-2Z"/><glyph unicode="B" horiz-adv-x="688" d="M145 0q-33 0-50 17T77 68v569q0 33 17 50t51 18h240q74 0 126-22t79-63 28-98q0-64-37-108t-101-59v15q74-11 115-56t41-117q0-94-63-145T396 0H145Zm55 97h180q68 0 100 26t32 80q0 54-32 80t-100 26H200V97Zm0 309h163q66 0 98 25t33 76q0 50-32 75t-99 26H200V406Z"/><glyph unicode="C" horiz-adv-x="680" d="M405-10q-110 0-188 44T96 160 54 353q0 83 24 149t69 114 110 73 148 26q55 0 108-14t93-40q21-13 28-31t3-36-16-30-31-13-41 12q-31 20-67 29t-73 9q-71 0-120-29t-74-84-25-135q0-79 25-135t74-85 120-29q38 0 75 9t70 30q22 13 39 12t30-13 16-27-2-34-24-31q-40-29-95-44T405-10Z"/><glyph unicode="D" horiz-adv-x="762" d="M145 0q-33 0-50 17T77 68v569q0 33 17 50t51 18h194q177 0 273-91t97-261q0-85-24-150T613 92 497 24 339 0H145Zm60 106h126q62 0 107 15t76 46 46 77 15 109q0 124-61 185t-183 61H205V106Z"/><glyph unicode="E" horiz-adv-x="597" d="M145 0q-33 0-50 17T77 68v569q0 33 17 50t51 18h357q25 0 38-13t14-37q0-25-13-38t-39-14H200V409h280q26 0 39-13t13-38q0-25-13-38t-39-13H200V102h302q25 0 38-13t14-38q0-25-13-38T502 0H145Z"/><glyph unicode="F" horiz-adv-x="562" d="M143-8Q112-8 95 9T77 60v577q0 33 17 50t51 18h349q26 0 39-13t13-37q0-25-13-38t-39-14H205V404h268q25 0 38-13t14-37q0-25-13-38t-39-14H205V60q0-68-62-68Z"/><glyph unicode="G" horiz-adv-x="736" d="M416-10q-117 0-197 44T96 159 54 351q0 84 24 151t71 114 114 73 152 26q56 0 112-13t107-46q17-11 22-27t2-32-15-29-27-15-37 8q-38 22-77 32t-87 10q-74 0-125-29t-76-86-26-137q0-123 59-187t175-64q40 0 81 8t80 22l-25-57v213H448q-25 0-38 13t-14 35q0 23 13 35t39 12h165q25 0 38-13t14-39V86q0-22-8-37t-28-22Q585 11 528 1T416-10Z"/><glyph unicode="H" horiz-adv-x="773" d="M141-8Q110-8 94 9T77 58v589q0 32 16 49t48 17q31 0 47-17t17-49V411h363v236q0 32 16 49t48 17q31 0 47-17t17-49V58q0-31-16-48T632-8q-31 0-47 17t-17 49v246H205V58q0-31-16-48T141-8Z"/><glyph unicode="I" horiz-adv-x="282" d="M141-8Q110-8 94 9T77 58v589q0 32 16 49t48 17q31 0 47-17t17-49V58q0-31-16-48T141-8Z"/><glyph unicode="J" horiz-adv-x="354" d="M46-7Q18-8 2 8t-16 41q0 19 11 33t34 16l30 2q44 3 66 27t23 71v450q0 32 16 48t48 17q31 0 47-16t17-49V199q0-63-22-107t-67-68T80-5L46-7Z"/><glyph unicode="K" horiz-adv-x="665" d="M141-8Q110-8 94 9T77 58v590q0 32 16 48t48 17q31 0 47-16t17-49V393h2l287 288q16 16 32 24t36 8q29 0 41-15t11-35-20-37L302 337l1 58L608 85q21-20 22-42T617 7 574-8q-24 0-38 10t-34 29L207 326h-2V58q0-31-16-48T141-8Z"/><glyph unicode="L" horiz-adv-x="562" d="M142 0q-31 0-48 17T77 66v577q0 32 16 48t48 17q31 0 47-16t17-49V109h290q27 0 41-14t15-40q0-26-14-40T495 0H142Z"/><glyph unicode="M" horiz-adv-x="868" d="M137-8Q109-8 94 8T79 52v601q0 29 16 44t44 16q25 0 39-9t27-33l247-457h-32l247 457q12 23 26 32t39 10q28 0 43-15t15-45V52q0-28-14-44T732-8q-28 0-43 16t-15 44v463h22L486 132q-10-17-21-25t-30-8q-19 0-31 8t-21 25L171 516h24V52q0-28-14-44T137-8Z"/><glyph unicode="N" horiz-adv-x="748" d="M137-8Q108-8 93 8T77 54v595q0 31 15 47t41 17q23 0 34-8t28-29l383-497h-26v473q0 29 15 45t45 16q29 0 44-16t15-45V52q0-28-14-44T619-8q-23 0-36 9t-30 29L171 527h25V54q0-30-15-46T137-8Z"/><glyph unicode="O" horiz-adv-x="785" d="M393-10q-102 0-178 45T96 161 54 353q0 83 24 149t68 114 107 73 140 26q103 0 179-44t118-126 42-191q0-83-24-150T640 89 533 16 393-10Zm0 110q65 0 110 30t70 87 25 136q0 120-53 186t-152 66q-64 0-110-29t-70-86-25-137q0-119 54-186t151-67Z"/><glyph unicode="P" horiz-adv-x="652" d="M141-8Q110-8 94 9T77 58v582q0 32 17 48t48 17h241q116 0 179-58t63-162q0-104-63-162t-179-59H205V58q0-31-16-48T141-8Zm64 373h158q68 0 103 30t35 90q0 59-35 89t-103 30H205V365Z"/><glyph unicode="Q" horiz-adv-x="785" d="M663-113q14-22 11-40t-16-30-32-16-38 3-32 29L487-56q-14 23-37 34t-58 12l99 39q47 0 75-16t54-58l43-68ZM393-10q-102 0-178 45T96 161 54 353q0 83 24 149t68 114 107 73 140 26q103 0 179-44t118-126 42-191q0-83-24-150T640 89 533 16 393-10Zm0 110q65 0 110 30t70 87 25 136q0 120-53 186t-152 66q-64 0-110-29t-70-86-25-137q0-119 54-186t151-67Z"/><glyph unicode="R" horiz-adv-x="686" d="M141-8Q110-8 94 9T77 58v582q0 32 17 48t48 17h241q116 0 179-55t63-156q0-65-28-112t-83-72-131-25l9 15h33q41 0 71-20t54-63l75-139q12-21 11-41T621 5 580-8q-27 0-44 11t-30 36L405 225q-18 34-42 45t-63 12h-95V58q0-31-16-48T141-8Zm64 385h156q69 0 104 28t36 86q0 56-35 84t-105 29H205V377Z"/><glyph unicode="S" horiz-adv-x="631" d="M320-10q-44 0-88 6t-83 20-70 34Q61 62 54 79t-5 33 13 29 27 16 35-9q44-26 93-38t103-12q79 0 115 26t36 69q0 35-25 55t-88 33l-110 23q-95 20-141 67T60 497q0 49 20 89t56 69 87 44 112 16q60 0 114-15t97-44q16-11 21-27t3-31-14-27-27-13-38 10q-37 21-75 30t-82 9q-46 0-79-13t-50-36-18-56q0-36 24-57t82-34l109-23q99-21 147-66t49-120q0-48-19-87t-56-67-88-43-115-15Z"/><glyph unicode="T" horiz-adv-x="621" d="M311-8q-31 0-47 17t-17 49v540H52q-26 0-40 14t-15 40q0 26 14 39t41 14h518q26 0 40-13t15-40q0-25-14-39t-41-15H375V58q0-31-16-48T311-8Z"/><glyph unicode="U" horiz-adv-x="738" d="M370-10q-73 0-128 19t-94 56-57 94-19 130v359q0 33 16 49t48 16q31 0 47-16t17-49V290q0-95 43-142t127-48q83 0 126 47t43 143v358q0 33 16 49t48 16q30 0 46-16t17-49V289q0-98-33-165T533 24 370-10Z"/><glyph unicode="V" horiz-adv-x="713" d="M357-8q-27 0-44 12t-29 38L23 628q-11 25-6 44t21 30 38 11q29 0 43-12t25-38l237-549h-43l236 550q11 24 26 36t42 13q22 0 36-11t19-30-7-44L429 42q-11-25-27-37T357-8Z"/><glyph unicode="W" horiz-adv-x="1113" d="M325-8q-27 0-43 13t-27 41L46 637q-11 32 4 54t53 22q27 0 42-12t24-40l180-534h-40l188 533q10 27 25 40t39 13q24 0 38-13t24-41l182-532h-35l183 534q9 26 24 39t41 13q32 0 47-22t4-54L858 45q-10-27-26-40T789-8q-27 0-43 13t-26 41L546 542h23L393 45q-10-27-25-40T325-8Z"/><glyph unicode="X" horiz-adv-x="672" d="M101-8Q76-8 60 5T42 39t13 42l229 305v-55L66 623q-16 22-14 42t18 34 40 14q20 0 35-9t32-32l180-248h-41l179 248q16 22 31 31t37 10q25 0 41-13t18-33-15-44L389 331v55L617 81q16-21 14-41T613 6 571-8q-19 0-34 10t-33 32L314 294h44L169 34q-16-22-32-32T101-8Z"/><glyph unicode="Y" horiz-adv-x="618" d="M309-8q-31 0-47 17t-17 50v304l27-77L31 625q-13 18-12 38t17 35 42 15q20 0 36-10t32-31l179-254h-28l180 254q16 22 31 31t37 10q26 0 40-13t15-34-14-42L347 286l26 77V59q0-67-64-67Z"/><glyph unicode="Z" horiz-adv-x="605" d="M106 0Q81 0 66 10T45 37t-1 39 23 45l382 518v-41H96q-28 0-42 14t-15 40q0 26 14 39t43 14h414q25 0 40-10t21-27 1-39-23-45L167 67v40h368q28 0 42-13t15-40q0-26-14-40T535 0H106Z"/><glyph unicode="[" horiz-adv-x="354" d="M159-180q-22 0-37 15t-16 37v781q0 23 15 37t38 15h143q23 0 35-13t13-34q0-20-12-33t-36-14h-71V-86h71q23 0 35-13t13-34q0-20-12-33t-36-14H159Z"/><glyph unicode="\" horiz-adv-x="313" d="M225-29-6 689q-6 20 0 34t18 22 28 8 28-8 20-28L319 0q6-20 1-34t-19-23-28-8-29 8-19 28Z"/><glyph unicode="]" horiz-adv-x="354" d="M52-180q-22 0-35 13T4-133q0 20 13 33t35 14h71v697H52q-22 0-35 13T4 658q0 20 13 33t35 14h143q23 0 38-14t15-38v-781q0-22-15-37t-38-15H52Z"/><glyph unicode="^" horiz-adv-x="600" d="M107 132q-30 0-39 18t0 43l171 402q9 22 24 31t37 10q43 0 61-41l171-402q11-25 2-43t-41-18q-16 0-27 8t-20 30L270 590h61L154 170q-9-22-19-30t-28-8Z"/><glyph unicode="_" horiz-adv-x="500" d="M52-75q-17 0-28 10T12-38q0 16 11 27T52 0h397q17 0 28-11t11-27q0-16-11-26t-28-11H52Z"/><glyph unicode="`" horiz-adv-x="377" d="m206 560-97 140q-11 17-9 32t14 26 27 15 31-1 25-25l75-149q8-16 3-29t-18-20-27-5-24 16Z"/><glyph unicode="a" horiz-adv-x="547" d="M226-10q-53 0-94 20T67 66t-24 79q0 54 28 85t91 46 169 14h50v-72h-49q-62 0-99-6t-52-20-16-41q0-33 23-54t64-21q33 0 58 15t41 43 15 62v115q0 50-22 72t-74 22q-29 0-62-7t-71-24q-19-9-33-5t-23 16-8 28 8 29 27 22q46 19 88 27t78 8q72 0 118-22t70-66 23-115V56q0-31-15-47T427-8q-28 0-43 16t-16 48v48h8q-7-35-27-60T297 4t-71-14Z"/><glyph unicode="b" horiz-adv-x="600" d="M347-10q-62 0-108 31t-62 83l11 25V56q0-31-16-47T127-8Q97-8 81 8T65 56v594q0 31 16 47t46 16q30 0 46-16t17-47V390h-12q16 49 62 79t107 30q65 0 113-31t75-87 27-136q0-78-27-135t-75-89-113-31Zm-35 95q37 0 65 18t43 53 16 89q0 80-34 119t-90 40q-37 0-65-17t-43-53-16-89q0-79 34-119t90-41Z"/><glyph unicode="c" horiz-adv-x="472" d="M291-10q-77 0-134 31t-88 90-31 136q0 59 17 105t51 79 80 50 105 18q33 0 71-9t73-30q16-10 21-24t2-28-12-25-24-13-31 6q-22 13-45 19t-44 7q-33 0-58-10t-42-30-27-49-9-67q0-74 35-116t101-43q21 0 43 6t46 19q17 9 30 6t23-13 11-25-3-29-21-23Q398 8 361-1t-70-9Z"/><glyph unicode="d" horiz-adv-x="600" d="M253-10q-64 0-112 31t-76 88-27 136q0 79 27 135t75 88 113 31q61 0 106-30t62-79h-11v260q0 31 16 47t46 16q30 0 46-16t17-47V56q0-31-16-47T473-8q-30 0-46 16t-16 48v78l11-30q-15-52-61-83T253-10Zm35 95q37 0 65 18t43 53 16 89q0 80-34 119t-90 40q-37 0-65-17t-43-53-16-89q0-79 34-119t90-41Z"/><glyph unicode="e" horiz-adv-x="542" d="M306-10q-83 0-143 31t-92 88-33 135q0 76 31 133t87 89 127 33q52 0 93-17t71-49 45-77 16-103q0-18-12-27t-36-10H139v72h281l-16-15q0 46-13 77t-39 47-64 17q-42 0-71-19t-45-55-16-85v-7q0-82 38-122t114-41q26 0 58 6t62 23q21 12 37 11t25-12 12-24-5-30-26-26q-35-22-80-32t-85-11Z"/><glyph unicode="f" horiz-adv-x="364" d="M161-8q-30 0-46 16T98 56v339H52q-24 0-37 12T2 442q0 23 13 35t37 12h82l-36-33v34q0 103 52 154t150 61l34 3q20 2 32-6t16-22 1-28-12-24-25-12l-14-1q-57-4-83-29t-26-76v-37l-16 16h101q24 0 37-12t13-35q0-22-13-34t-37-13h-85V56q0-64-62-64Z"/><glyph unicode="g" horiz-adv-x="604" d="M293-190q-54 0-104 10t-92 31q-19 10-25 24t-5 28 12 26 24 15 29-4q44-22 83-28t68-7q67 0 100 32t34 97v90h9q-15-51-62-81T256 12q-66 0-115 30t-76 86-27 128q0 55 15 99t44 77 69 49 90 18q62 0 108-30t61-81l-10-25v71q0 31 16 47t46 16q30 0 46-16t16-47V49q0-119-63-179t-183-60Zm-3 297q39 0 67 18t43 51 16 80q0 69-34 108t-92 40q-39 0-67-18t-43-51-16-79q0-69 34-109t92-40Z"/><glyph unicode="h" horiz-adv-x="585" d="M127-8Q97-8 81 8T65 56v594q0 31 16 47t46 16q30 0 46-16t17-47V391h-14q22 53 68 80t106 28q59 0 97-22t57-66 19-113V56q0-31-16-47T461-8q-30 0-46 16t-17 48v236q0 57-21 83t-67 26q-55 0-87-34t-33-92V56q0-64-63-64Z"/><glyph unicode="i" horiz-adv-x="255" d="M127-7Q97-7 81 11T65 61v367q0 33 16 50t46 18q30 0 46-17t17-51V61q0-32-16-50T127-7Zm0 596q-35 0-54 17t-20 49q0 32 19 49t55 17q36 0 55-17t19-49q0-31-19-48t-55-18Z"/><glyph unicode="j" horiz-adv-x="259" d="M5-189q-22-2-36 6t-19 22-4 27 11 24 26 12q45 4 65 25T69-7v441q0 31 16 47t47 16q30 0 46-16t16-47V4q0-64-20-105t-62-62T5-189Zm126 778q-35 0-54 17t-20 49q0 32 19 49t55 17q36 0 55-17t19-49q0-31-19-48t-55-18Z"/><glyph unicode="k" horiz-adv-x="536" d="M127-8Q97-8 81 8T65 56v594q0 31 16 47t46 16q30 0 46-16t17-47V281h2l165 174q20 20 35 31t41 11q26 0 39-13t14-33-18-38L294 229v52L485 75q18-19 17-38T485 5 447-8q-28 0-44 11t-37 33L192 218h-2V56q0-64-63-64Z"/><glyph unicode="l" horiz-adv-x="319" d="M232-10q-83 0-125 47T65 177v473q0 31 16 47t46 16q30 0 46-16t17-47V183q0-46 19-68t56-22h15q7 0 14 2 14 2 19-7t5-39q0-25-10-39T275-7q-10-1-21-2t-22-1Z"/><glyph unicode="m" horiz-adv-x="877" d="M129-8Q99-8 83 8T67 56v378q0 31 16 47t45 16q29 0 45-16t16-47v-73l-11 30q20 50 62 79t100 29q59 0 97-28t53-86h-14q20 53 66 83t106 31q56 0 92-22t55-66 18-113V56q0-31-16-47T750-8q-30 0-46 16t-16 48v237q0 56-18 82t-63 26q-49 0-77-34t-28-96V56q0-31-16-47T440-8q-30 0-46 16t-17 48v237q0 56-18 82t-62 26q-49 0-77-34t-28-96V56q0-64-63-64Z"/><glyph unicode="n" horiz-adv-x="585" d="M127-8Q97-8 81 8T65 56v378q0 31 16 47t45 16q29 0 45-16t16-47v-68l-11 25q22 53 68 80t106 28q59 0 97-22t57-66 19-113V56q0-31-16-47T461-8q-30 0-46 16t-17 48v236q0 57-21 83t-67 26q-55 0-87-34t-33-92V56q0-64-63-64Z"/><glyph unicode="o" horiz-adv-x="576" d="M288-10q-76 0-132 31t-87 88-31 136q0 59 17 105t51 80 79 51 103 18q76 0 132-31t87-88 31-135q0-59-17-106t-51-80-79-51-103-18Zm0 95q37 0 65 18t43 53 16 89q0 80-34 119t-90 40q-37 0-65-17t-43-53-16-89q0-79 34-119t90-41Z"/><glyph unicode="p" horiz-adv-x="600" d="M127-188q-30 0-46 16t-16 47v559q0 31 16 47t45 16q30 0 46-16t16-47v-78l-11 30q15 51 61 82t109 31q64 0 112-31t76-87 27-136q0-78-27-135t-75-89-113-31q-61 0-107 30t-62 80h12v-225q0-31-16-47t-47-16ZM312 85q37 0 65 18t43 53 16 89q0 80-34 119t-90 40q-37 0-65-17t-43-53-16-89q0-79 34-119t90-41Z"/><glyph unicode="q" horiz-adv-x="600" d="M472-188q-30 0-46 16t-16 47v225h11q-16-49-61-79T253-10q-64 0-112 31t-76 88-27 136q0 79 27 135t75 88 113 31q62 0 108-31t61-82l-11-30v78q0 31 16 47t46 16q30 0 46-16t16-47v-559q0-31-16-47t-47-16ZM288 85q37 0 65 18t43 53 16 89q0 80-34 119t-90 40q-37 0-65-17t-43-53-16-89q0-79 34-119t90-41Z"/><glyph unicode="r" horiz-adv-x="392" d="M129-8Q98-8 82 8T65 56v378q0 31 16 47t45 16q29 0 45-16t16-47v-63h-10q14 60 55 91t109 37q21 2 33-10t15-39q2-25-11-40t-41-19l-22-2q-61-6-92-37t-31-89V56q0-31-16-47T129-8Z"/><glyph unicode="s" horiz-adv-x="488" d="M244-10q-43 0-91 9T67 30Q51 40 45 53t-6 27 10 24 22 13 30-5q40-19 75-26t69-8q48 0 71 16t24 44q0 23-15 35t-47 19l-100 19q-62 12-94 45t-33 87q0 48 26 83t74 54 108 19q44 0 82-9t75-30q15-8 20-21t3-26-12-24-22-13-31 5q-31 16-59 23t-55 7q-49 0-72-17t-24-45q0-21 14-35t43-19l100-19q65-12 98-44t34-86q0-73-57-114T244-10Z"/><glyph unicode="t" horiz-adv-x="384" d="M289-10q-65 0-108 22t-65 64-21 106v213H43q-24 0-37 12t-13 35q0 23 13 35t37 12h52v91q0 31 16 47t47 16q30 0 46-16t16-47v-91h106q24 0 37-12t13-35q0-22-13-34t-37-13H220V189q0-48 21-72t68-24q17 0 30 3t23 4q12 1 20-7t8-35q0-20-6-35T360 1q-13-4-34-7t-37-4Z"/><glyph unicode="u" horiz-adv-x="579" d="M242-10q-61 0-101 22T82 80 62 192v242q0 32 16 47t46 16q30 0 46-15t17-48V190q0-52 21-77t67-25q50 0 82 34t32 92v220q0 32 16 47t46 16q30 0 46-15t17-48V56q0-64-61-64-29 0-45 16t-16 48v76l14-30q-21-54-63-83T242-10Z"/><glyph unicode="v" horiz-adv-x="527" d="M263-8q-25 0-43 13t-31 40L30 414q-9 22-7 41t18 30 43 12q23 0 37-10t25-40l135-337h-30l139 338q11 28 25 38t40 11q22 0 35-11t16-30-7-41L337 45q-11-27-29-40T263-8Z"/><glyph unicode="w" horiz-adv-x="853" d="M254-8q-25 0-43 12t-29 40L37 414q-9 24-6 42t19 30 40 11q22 0 36-10t24-40l121-333h-23l125 341q8 22 21 32t36 10q22 0 36-10t21-32l123-341h-21l122 336q10 27 25 37t35 10q24 0 37-12t15-30-7-41L672 44q-10-26-28-39T600-8q-25 0-43 13t-29 39L397 391h57L326 45q-10-27-28-40T254-8Z"/><glyph unicode="x" horiz-adv-x="546" d="M99-5Q77-5 63 7T48 40t16 42l162 200v-59L74 410q-18 22-17 42t15 32 37 13q23 0 38-8t29-25l120-154h-44l121 154q14 17 29 25t37 8q23 0 37-13t14-33-17-42L322 224v56L484 82q18-21 17-41T486 8 448-5q-22 0-37 8t-29 25L252 192h42L165 28q-13-16-28-24T99-5Z"/><glyph unicode="y" horiz-adv-x="526" d="M189-188q-22 0-36 11t-16 31 6 40l68 151V-7L29 414q-9 22-6 41t18 30 43 12q23 0 37-10t25-40l135-337h-30l138 338q11 28 26 38t40 11q22 0 35-11t16-30-7-41L256-140q-13-28-28-38t-39-10Z"/><glyph unicode="z" horiz-adv-x="474" d="M95 0Q76 0 64 9T47 34t0 32 19 34l259 325v-30H89q-23 0-35 12t-13 35q0 23 12 35t36 12h296q22 0 36-9t18-25 1-32-18-32L158 61v33h250q48 0 48-47 0-22-12-34T408 0H95Z"/><glyph unicode="{" horiz-adv-x="391" d="M264-180q-38 0-65 14t-42 41-14 66v194q0 41-14 59t-53 20q-19 1-30 15t-11 34q0 20 11 33t30 15q38 2 52 20t15 59v194q0 58 31 89t90 32h71q23 0 37-13t15-34q0-20-12-33t-32-14h-35q-20 0-30-11t-10-33V375q0-31-13-57t-34-42-49-16v4q27 0 48-15t35-42 13-57V-42q0-22 10-33t30-11h35q20 0 32-13t12-34q0-20-14-33t-38-14h-71Z"/><glyph unicode="|" horiz-adv-x="288" d="M144-189q-30 0-46 16t-16 47v776q0 32 16 47t46 16q30 0 46-15t17-48v-776q0-63-63-63Z"/><glyph unicode="}" horiz-adv-x="391" d="M56-180q-22 0-37 13T4-133q0 20 12 33t32 14h35q20 0 30 11t10 33v192q0 31 13 57t35 42 48 16v-4q-26 0-48 15t-35 42-13 57v192q0 22-10 33t-30 11H48q-20 0-32 13T4 658q0 20 15 33t37 14h71q39 0 66-14t41-41 14-66V390q0-40 15-58t52-21q20-1 30-15t11-34q0-19-10-33t-31-15q-37-1-52-19t-15-60V-59q0-58-31-89t-90-32H56Z"/><glyph unicode="~" horiz-adv-x="600" d="M409 209q-25 0-52 9t-65 29q-37 20-58 27t-36 8q-17 0-33-6t-31-29q-11-17-26-18t-27 7-16 24 6 33q22 36 53 54t67 19q24 0 52-8t65-29q33-17 55-26t39-10q17 0 33 6t32 29q11 17 26 18t27-7 17-24-7-33q-22-36-53-54t-68-19Z"/><glyph horiz-adv-x="271"/><glyph unicode="¡" horiz-adv-x="248" d="M125-188q-37 0-56 22t-16 60l30 347q2 23 12 34t30 12q18 0 29-11t12-35l28-347q3-37-15-59t-54-23Zm0 534q-34 0-54 21t-21 53q0 33 20 53t55 21q35 0 54-20t20-54q0-32-19-53t-55-21Z"/><glyph unicode="¢" horiz-adv-x="600" d="M321-123q-21 0-35 14t-15 37v97l19-30Q227 5 180 38t-72 87-26 120q0 48 14 89t42 74 66 54 86 29l-19-32v107q0 22 14 36t36 15q22 0 36-14t14-37V466l-31 29q39 0 79-10t72-30q15-10 20-24t3-28-12-25-24-13-31 7q-21 12-47 19t-51 7q-33 0-58-11t-44-31-27-48-10-61q0-68 36-111t102-43q23 0 48 6t51 20q19 11 33 8t22-14 11-26-4-29-22-24q-29-18-69-29T338-8l33 27v-91q0-22-14-36t-36-15Z"/><glyph unicode="£" horiz-adv-x="600" d="M89 0Q67 0 52 15T36 53q0 23 15 37t38 15h63l-24-21v251l23-25H82q-19 0-32 12t-14 32q0 20 13 32t33 12h69l-23-27v126q0 66 26 115t78 76 132 27q51 0 103-15t85-40q17-13 22-29t1-31-16-24-28-11-35 11q-30 20-62 28t-64 8q-58 0-86-28t-28-82V374l-13 24h140q20 0 33-12t14-32q0-19-13-31t-34-13H256V105h260q23 0 38-14t15-38q0-22-15-37T516 0H89Z"/><glyph unicode="¤" horiz-adv-x="600" d="M49-12Q38-1 38 14t11 26l55 57q-22 31-34 69t-13 79q0 42 12 80t35 69l-55 57q-11 11-11 25t11 26q11 11 25 11t27-12l55-56q30 23 66 35t77 13q40 0 76-12t66-35l53 55q12 12 28 12t27-10q12-12 12-27t-12-28l-55-56q23-31 34-68t12-79q0-41-12-78t-35-70l56-57q11-11 11-26t-11-26q-10-10-25-10t-26 12l-55 56q-30-23-66-36T299-3q-40 0-77 13t-67 35l-55-56Q89-22 75-22T49-12ZM299 98q38 0 69 20t50 53 19 74q0 41-18 74t-50 54-70 20q-38 0-70-20t-50-53-19-75q0-40 18-73t50-54 71-20Z"/><glyph unicode="¥" horiz-adv-x="600" d="M300-8q-31 0-47 17t-17 50v100H108q-23 0-35 11t-13 33q0 21 12 32t36 12h128v68H108q-23 0-35 11t-13 33q0 21 12 32t36 12h101v-22L36 630q-12 17-10 36t17 33 40 14q20 0 34-9t27-30l170-253h-28l170 253q14 21 28 30t35 9q25 0 40-13t16-32-12-40L392 381v22h100q23 0 35-11t13-33q0-21-12-32t-36-12H364v-68h128q23 0 35-11t13-33q0-21-12-32t-36-12H364V59q0-67-64-67Z"/><glyph unicode="¦" horiz-adv-x="288" d="M144 364q-30 0-46 16t-16 47v223q0 32 16 47t46 16q30 0 46-15t17-48V427q0-63-63-63Zm0-552q-30 0-46 16t-16 47V98q0 31 16 47t46 17q30 0 46-16t17-48v-223q0-63-63-63Z"/><glyph unicode="§" horiz-adv-x="570" d="M263-190q-52 0-99 10t-83 30q-15 9-20 22t-4 27 12 24 22 14 31-5q30-15 68-24t73-9q34 0 58 10t39 29 14 48q0 29-16 51t-59 41l-126 57q-50 23-80 49t-44 56-14 68q0 47 23 87t67 68l-10-34q-18 17-28 42t-11 59q0 58 29 99t80 63 119 23q52 0 97-10t82-31q15-9 20-22t4-28-12-24-22-14-31 6q-30 16-66 25t-72 9q-32 0-56-10t-38-29-14-48q0-29 16-50t59-42l126-57q51-23 81-49t43-56 14-68q0-47-23-87t-67-68l10 34q18-17 28-42t11-59q0-57-29-98t-81-64-121-23ZM146 330q0-31 20-56t70-49l109-50q26-12 45-26t32-27l-31-4q17 17 25 36t8 41q0 32-20 57t-70 48l-109 50q-26 12-45 26t-32 27l31 4q-16-16-24-36t-9-41Z"/><glyph unicode="¨" horiz-adv-x="512" d="M351 593q-30 0-46 16t-16 46q0 29 16 45t46 16q29 0 45-16t16-45q0-30-15-46t-46-16Zm-189 0q-29 0-45 16t-17 46q0 29 16 45t46 16q30 0 46-16t16-45q0-30-16-46t-46-16Z"/><glyph unicode="©" horiz-adv-x="815" d="M408-10q-77 0-143 27T150 94 73 210 45 353q0 77 27 143t77 115 116 76 143 28q77 0 143-27t115-77 76-115 28-143q0-77-27-143T666 95 551 18 408-10Zm0 53q66 0 122 23t97 66 64 98 23 123q0 66-23 122t-64 98-97 65-122 24q-66 0-122-23t-97-65-65-98-23-123q0-66 23-122t64-99 98-65 122-24Zm18 94q-100 0-158 59t-59 159q0 99 58 156t159 57q29 0 61-7t60-24q14-8 19-20t4-26-9-22-20-12-27 5q-20 11-40 16t-39 6q-56 0-88-34t-32-96q0-62 32-97t88-36q19 0 38 5t42 16q18 9 31 3t20-20 2-29-20-26q-27-16-59-24t-63-9Z"/><glyph unicode="ª" horiz-adv-x="339" d="M135 408q-50 0-81 27t-32 67q0 47 41 67t122 20h52v-44h-49q-45 0-65-10t-20-31q0-17 12-29t41-12q21 0 37 9t25 28 10 42v58q0 28-16 41t-50 13q-16 0-35-3t-43-12q-17-5-27 1t-14 17 2 23 22 17q26 11 51 14t50 4q47 0 78-13t46-40 16-66V447q0-39-38-39-19 0-29 11t-10 29v21h-2q-16-31-38-46t-56-15Z"/><glyph unicode="«" horiz-adv-x="494" d="M206 83q-17-7-33-3t-27 21L68 225q-13 20-13 40t13 42l76 123q11 17 27 21t34-3q19-8 25-27t-4-41l-54-114 54-115q10-21 5-40t-25-28Zm207 0q-17-7-33-3t-27 21l-78 124q-13 20-13 40t13 42l76 123q11 17 27 21t34-3q19-8 25-27t-4-41l-54-114 54-115q10-21 5-40t-25-28Z"/><glyph unicode="¬" horiz-adv-x="600" d="M498 132q-23 0-34 12t-12 35v165H93q-21 0-33 11t-12 33q0 21 12 32t33 12h404q23 0 35-12t12-35V179q0-47-46-47Z"/><glyph unicode="­" horiz-adv-x="434" d="M111 218q-22 0-36 14t-15 36q0 22 14 36t37 14h213q21 0 35-14t15-36q0-21-14-35t-36-15H111Z"/><glyph unicode="®" horiz-adv-x="815" d="M408-10q-77 0-143 27T150 94 73 210 45 353q0 77 27 143t77 115 116 76 143 28q77 0 143-27t115-77 76-115 28-143q0-77-27-143T666 95 551 18 408-10Zm0 53q66 0 122 23t97 66 64 98 23 123q0 66-23 122t-64 98-97 65-122 24q-66 0-122-23t-97-65-65-98-23-123q0-66 23-122t64-99 98-65 122-24Zm-107 93q-48 0-48 50v322q0 27 14 42t43 15h126q71 0 108-34t38-91q0-58-37-88t-104-31l22 11q31 0 50-13t34-57l22-67q10-29-5-44t-41-15q-17 0-28 10t-16 28l-29 93q-7 22-22 29t-35 8h-60l16 11V186q0-50-48-50Zm47 240h75q34 0 51 14t17 45q0 30-17 44t-51 14h-75V376Z"/><glyph unicode="¯" horiz-adv-x="525" d="M139 616q-39 0-39 37 0 18 10 27t29 10h247q39 0 39-37 0-17-10-27t-29-10H139Z"/><glyph unicode="°" horiz-adv-x="379" d="M190 406q-45 0-80 20t-56 56-21 79q0 44 20 78t56 55 81 21q45 0 80-20t55-55 21-79q0-44-20-79t-56-56-80-20Zm0 71q35 0 57 24t22 60q0 35-22 59t-57 24q-35 0-57-24t-23-59q0-36 22-60t58-24Z"/><glyph unicode="±" horiz-adv-x="600" d="M300 131q-22 0-34 12t-12 35v113H94q-22 0-34 11t-12 33q0 21 12 32t34 12h160v113q0 23 12 35t35 12q22 0 33-12t12-35V379h161q22 0 33-11t12-33q0-21-11-32t-34-12H346V178q0-22-11-34t-35-13ZM93 0Q72 0 60 11T48 44q0 21 12 32t33 12h414q22 0 33-11t12-33q0-21-11-32T507 0H93Z"/><glyph unicode="²" horiz-adv-x="380" d="M92 282q-20 0-33 12t-14 33q0 16 7 28t19 24l101 106q25 26 35 47t11 42q0 25-14 38t-44 14q-17 0-35-5t-34-15q-18-10-32-5t-22 18-3 30 22 27q26 16 60 24t67 9q44 0 76-15t49-42 18-64q0-33-15-64t-52-68l-96-99v9h146q43 0 43-42 0-20-11-31t-32-11H92Z"/><glyph unicode="³" horiz-adv-x="380" d="M185 277q-39 0-73 8t-60 25q-18 11-22 27t2 30 22 18 36-6q20-10 40-14t43-5q33 0 52 13t19 39q0 23-17 32t-48 9h-44q-22 0-33 11t-12 31q0 20 11 31t34 11h32q31 0 48 10t17 34q0 20-16 32t-49 13q-17 0-35-4t-35-13q-21-11-37-7t-23 18-3 29 22 27q27 16 61 24t68 9q67 0 106-30t39-81q0-41-26-69t-65-36v12q47-4 75-31t28-75q0-38-20-65t-56-42-81-15Z"/><glyph unicode="´" horiz-adv-x="377" d="M171 560q-10-14-24-16t-27 5-18 20 2 29l76 149q9 19 24 24t31 2 27-15 14-26-8-32l-97-140Z"/><glyph unicode="µ" horiz-adv-x="600" d="M137-188q-30 0-46 16t-16 47v559q0 32 16 47t46 16q30 0 46-15t17-48V191q0-52 21-76t67-25q50 0 82 34t32 91v219q0 32 16 47t46 16q30 0 46-15t17-48V56q0-64-61-64-29 0-45 15t-16 39v56h4q-12-54-46-83t-78-29q-36 0-61 13t-41 48h7l7-174q2-31-13-48t-47-17Z"/><glyph unicode="¶" horiz-adv-x="624" d="M294-188q-22 0-33 12t-12 34v424q-64 0-112 27t-74 74-27 111q0 63 26 110t75 74 114 27h236q29 0 45-15t16-45v-787q0-46-46-46-22 0-33 12t-12 34v758H340v-758q0-46-46-46Z"/><glyph unicode="·" horiz-adv-x="248" d="M125 194q-34 0-54 20t-21 54q0 32 20 52t55 21q35 0 54-20t20-53q0-33-19-53t-55-21Z"/><glyph unicode="¸" horiz-adv-x="421" d="M202-195q-19 0-40 2t-38 9q-15 5-20 16t-3 23 14 18 26 0q13-4 25-6t26-2q26 0 40 7t14 23q0 11-8 17t-29 6h-14q-7 0-16-3-7-2-12-2t-11 5q-4 4-5 10t0 16l11 76h67l-13-76-32 11q12 4 24 6t22 2q41 0 66-19t25-53q0-39-33-62t-86-24Z"/><glyph unicode="¹" horiz-adv-x="380" d="M104 282q-43 0-43 42 0 20 11 31t32 11h62v250h42l-82-46q-21-12-38-7t-24 20-4 32 25 29l83 47q14 8 27 13t28 5q14 0 23-5t15-16 5-24V366h40q44 0 44-42 0-20-11-31t-33-11H104Z"/><glyph unicode="º" horiz-adv-x="353" d="M177 409q-45 0-81 19t-56 53-21 82q0 47 20 81t57 52 81 19q45 0 80-18t56-53 21-81q0-47-20-81t-56-54-81-19Zm0 63q34 0 54 23t20 68q0 44-20 67t-54 23q-34 0-54-22t-21-68q0-45 20-68t55-23Z"/><glyph unicode="»" horiz-adv-x="494" d="M81 83q-19 8-24 27t4 41l55 115-55 114q-10 22-4 41t26 27q17 8 34 4t27-22l75-123q13-21 13-41t-13-41l-77-124q-10-16-27-20t-34 2Zm207 0q-19 8-24 27t4 41l55 115-55 114q-10 22-4 41t26 27q17 8 34 4t27-22l75-123q13-21 13-41t-13-41l-77-124q-10-16-27-20t-34 2Z"/><glyph unicode="¼" horiz-adv-x="912" d="M104 282q-43 0-43 42 0 20 11 31t32 11h62v250h42l-82-46q-21-12-38-7t-24 20-4 32 25 29l83 47q14 8 27 13t28 5q14 0 23-5t15-16 5-24V366h40q44 0 44-42 0-20-11-31t-33-11H104ZM339 8q-10-17-23-22t-28-2-24 14-12 25 7 33l371 641q10 17 24 22t28 2 24-14 12-26-8-32L339 8ZM794-4q-24 0-37 12t-14 35v28H603q-23 0-37 13t-14 32q0 14 7 27t18 29l153 222q5 8 19 21t42 13q26 0 39-14t13-40V155h20q16 0 27-10t12-31q0-24-11-33t-28-10h-20V43q0-22-13-34T794-4Zm-51 159v167h24L639 135v20h104Z"/><glyph unicode="½" horiz-adv-x="960" d="M104 282q-43 0-43 42 0 20 11 31t32 11h62v250h42l-82-46q-21-12-38-7t-24 20-4 32 25 29l83 47q14 8 27 13t28 5q14 0 23-5t15-16 5-24V366h40q44 0 44-42 0-20-11-31t-33-11H104ZM339 8q-10-17-23-22t-28-2-24 14-12 25 7 33l371 641q10 17 24 22t28 2 24-14 12-26-8-32L339 8Zm333-8q-20 0-33 12t-14 33q0 16 7 28t19 24l101 106q25 26 35 47t11 42q0 25-14 38t-44 14q-17 0-35-5t-34-15q-18-10-32-5t-22 18-3 30 22 27q26 16 60 24t67 9q44 0 76-15t49-42 18-64q0-33-15-64t-52-68l-96-99v9h146q43 0 43-42 0-20-11-31T889 0H672Z"/><glyph unicode="¾" horiz-adv-x="912" d="M185 277q-39 0-73 8t-60 25q-18 11-22 27t2 30 22 18 36-6q20-10 40-14t43-5q33 0 52 13t19 39q0 23-17 32t-48 9h-44q-22 0-33 11t-12 31q0 20 11 31t34 11h32q31 0 48 10t17 34q0 20-16 32t-49 13q-17 0-35-4t-35-13q-21-11-37-7t-23 18-3 29 22 27q27 16 61 24t68 9q67 0 106-30t39-81q0-41-26-69t-65-36v12q47-4 75-31t28-75q0-38-20-65t-56-42-81-15ZM339 8q-10-17-23-22t-28-2-24 14-12 25 7 33l371 641q10 17 24 22t28 2 24-14 12-26-8-32L339 8ZM794-4q-24 0-37 12t-14 35v28H603q-23 0-37 13t-14 32q0 14 7 27t18 29l153 222q5 8 19 21t42 13q26 0 39-14t13-40V155h20q16 0 27-10t12-31q0-24-11-33t-28-10h-20V43q0-22-13-34T794-4Zm-51 159v167h24L639 135v20h104Z"/><glyph unicode="¿" horiz-adv-x="459" d="M226-190q-63 0-110 19t-73 55-27 82q0 43 20 80t72 81q32 26 50 48t26 41 12 37q2 14 12 23t28 9q19 0 29-12t11-33q0-24-7-49t-23-51-46-54q-33-31-45-53t-12-47q0-31 24-49t67-19q38 0 71 9t67 27q22 12 40 10t29-13 14-28-5-33-30-29q-42-24-91-37t-103-14Zm12 536q-34 0-54 20t-20 53q0 33 20 54t54 21q35 0 55-21t20-54q0-32-20-52t-55-21Z"/><glyph unicode="À" horiz-adv-x="744" d="M84-8Q60-8 46 3T28 32t7 42l264 585q13 29 31 41t43 13q23 0 41-12t32-42L711 74q11-23 8-42T702 3 665-8q-28 0-43 13t-28 42l-65 151 54-35H161l54 35-64-151q-13-29-27-42T84-8Zm287 574L231 233l-26 32h334l-25-32-141 333h-2Zm-48 205-96 105q-13 14-12 28t10 26 25 17 30 3 27-21l78-115q9-14 6-27t-15-21-26-9-27 14Z"/><glyph unicode="Á" horiz-adv-x="744" d="M84-8Q60-8 46 3T28 32t7 42l264 585q13 29 31 41t43 13q23 0 41-12t32-42L711 74q11-23 8-42T702 3 665-8q-28 0-43 13t-28 42l-65 151 54-35H161l54 35-64-151q-13-29-27-42T84-8Zm287 574L231 233l-26 32h334l-25-32-141 333h-2Zm53 205q-12-13-26-13t-26 7-15 22 5 27l78 115q11 17 26 20t31-1 24-17 11-26-12-29l-96-105Z"/><glyph unicode="Â" horiz-adv-x="744" d="M84-8Q60-8 46 3T28 32t7 42l264 585q13 29 31 41t43 13q23 0 41-12t32-42L711 74q11-23 8-42T702 3 665-8q-28 0-43 13t-28 42l-65 151 54-35H161l54 35-64-151q-13-29-27-42T84-8Zm287 574L231 233l-26 32h334l-25-32-141 333h-2Zm-82 205q-12-13-27-14t-26 6-15 20 6 27l73 101q14 21 32 30t41 10q23 0 41-9t33-31l72-101q11-14 8-26t-15-20-27-7-27 14l-85 98-84-98Z"/><glyph unicode="Ã" horiz-adv-x="744" d="M84-8Q60-8 46 3T28 32t7 42l264 585q13 29 31 41t43 13q23 0 41-12t32-42L711 74q11-23 8-42T702 3 665-8q-28 0-43 13t-28 42l-65 151 54-35H161l54 35-64-151q-13-29-27-42T84-8Zm287 574L231 233l-26 32h334l-25-32-141 333h-2ZM184 769q-16 1-25 11t-5 27q12 56 46 86t84 31q28 0 52-10t46-23 42-23 41-10q26 0 41 13t21 34q4 14 13 20t22 6q16-1 25-11t5-27q-12-56-45-86t-84-31q-28 0-52 10t-47 23-42 23-41 10q-25 0-41-13t-21-34q-4-13-12-20t-23-6Z"/><glyph unicode="Ä" horiz-adv-x="744" d="M84-8Q60-8 46 3T28 32t7 42l264 585q13 29 31 41t43 13q23 0 41-12t32-42L711 74q11-23 8-42T702 3 665-8q-28 0-43 13t-28 42l-65 151 54-35H161l54 35-64-151q-13-29-27-42T84-8Zm287 574L231 233l-26 32h334l-25-32-141 333h-2Zm97 220q-30 0-46 16t-16 46q0 29 16 45t46 16q29 0 45-16t16-45q0-30-15-46t-46-16Zm-189 0q-29 0-45 16t-17 46q0 29 16 45t46 16q30 0 46-16t16-45q0-30-16-46t-46-16Z"/><glyph unicode="Å" horiz-adv-x="744" d="M84-8Q60-8 46 3T28 32t7 42l264 585q13 29 31 41t43 13q23 0 41-12t32-42L711 74q11-23 8-42T702 3 665-8q-28 0-43 13t-28 42l-65 151 54-35H161l54 35-64-151q-13-29-27-42T84-8Zm287 574L231 233l-26 32h334l-25-32-141 333h-2Zm2 189q-35 0-64 16t-45 45-17 62q0 35 16 62t46 44 64 16q36 0 64-16t45-43 17-63q0-34-16-62t-45-44-65-17Zm0 57q29 0 47 19t18 47q0 28-18 46t-47 19q-28 0-46-18t-19-47q0-28 18-47t47-19Z"/><glyph unicode="Æ" horiz-adv-x="993" d="M54-8Q26-8 12 3T-3 33 9 72l371 598q11 19 26 27t38 8h452q26 0 39-13t14-37q0-25-13-38t-40-14H503l30 34 57-263-43 35h328q26 0 39-13t14-38q0-25-13-38t-40-13H569l28 35 60-277-46 37h285q26 0 39-13t14-38q0-25-13-38T896 0H604q-47 0-58 47l-33 154 42-38H169l48 34-98-165Q107 13 93 3T54-8Zm379 570L238 234l-9 31h302l-24-35-72 332h-2Z"/><glyph unicode="Ç" horiz-adv-x="680" d="M405-10q-110 0-188 44T96 160 54 353q0 83 24 149t69 114 110 73 148 26q55 0 108-14t93-40q21-13 28-31t3-36-16-30-31-13-41 12q-31 20-67 29t-73 9q-71 0-120-29t-74-84-25-135q0-79 25-135t74-85 120-29q38 0 75 9t70 30q22 13 39 12t30-13 16-27-2-34-24-31q-40-29-95-44T405-10Zm-13-185q-19 0-40 2t-38 9q-15 5-20 16t-3 23 14 18 26 0q13-4 25-6t26-2q26 0 40 7t14 23q0 11-8 17t-29 6h-14q-7 0-16-3-7-2-12-2t-11 5q-4 4-5 10t0 16l11 76h67l-13-76-32 11q12 4 24 6t22 2q41 0 66-19t25-53q0-39-33-62t-86-24Z"/><glyph unicode="È" horiz-adv-x="597" d="M145 0q-33 0-50 17T77 68v569q0 33 17 50t51 18h357q25 0 38-13t14-37q0-25-13-38t-39-14H200V409h280q26 0 39-13t13-38q0-25-13-38t-39-13H200V102h302q25 0 38-13t14-38q0-25-13-38T502 0H145Zm133 771-96 105q-13 14-12 28t10 26 25 17 30 3 27-21l78-115q9-14 6-27t-15-21-26-9-27 14Z"/><glyph unicode="É" horiz-adv-x="597" d="M145 0q-33 0-50 17T77 68v569q0 33 17 50t51 18h357q25 0 38-13t14-37q0-25-13-38t-39-14H200V409h280q26 0 39-13t13-38q0-25-13-38t-39-13H200V102h302q25 0 38-13t14-38q0-25-13-38T502 0H145Zm234 771q-12-13-26-13t-26 7-15 22 5 27l78 115q11 17 26 20t31-1 24-17 11-26-12-29l-96-105Z"/><glyph unicode="Ê" horiz-adv-x="597" d="M145 0q-33 0-50 17T77 68v569q0 33 17 50t51 18h357q25 0 38-13t14-37q0-25-13-38t-39-14H200V409h280q26 0 39-13t13-38q0-25-13-38t-39-13H200V102h302q25 0 38-13t14-38q0-25-13-38T502 0H145Zm99 771q-12-13-27-14t-26 6-15 20 6 27l73 101q14 21 32 30t41 10q23 0 41-9t33-31l72-101q11-14 8-26t-15-20-27-7-27 14l-85 98-84-98Z"/><glyph unicode="Ë" horiz-adv-x="597" d="M145 0q-33 0-50 17T77 68v569q0 33 17 50t51 18h357q25 0 38-13t14-37q0-25-13-38t-39-14H200V409h280q26 0 39-13t13-38q0-25-13-38t-39-13H200V102h302q25 0 38-13t14-38q0-25-13-38T502 0H145Zm278 786q-30 0-46 16t-16 46q0 29 16 45t46 16q29 0 45-16t16-45q0-30-15-46t-46-16Zm-189 0q-29 0-45 16t-17 46q0 29 16 45t46 16q30 0 46-16t16-45q0-30-16-46t-46-16Z"/><glyph unicode="Ì" horiz-adv-x="282" d="M141-8Q110-8 94 9T77 58v589q0 32 16 49t48 17q31 0 47-17t17-49V58q0-31-16-48T141-8ZM91 771-5 876q-13 14-12 28t10 26 25 17 30 3 27-21l78-115q9-14 6-27t-15-21-26-9-27 14Z"/><glyph unicode="Í" horiz-adv-x="282" d="M141-8Q110-8 94 9T77 58v589q0 32 16 49t48 17q31 0 47-17t17-49V58q0-31-16-48T141-8Zm51 779q-12-13-26-13t-26 7-15 22 5 27l78 115q11 17 26 20t31-1 24-17 11-26-12-29l-96-105Z"/><glyph unicode="Î" horiz-adv-x="282" d="M141-8Q110-8 94 9T77 58v589q0 32 16 49t48 17q31 0 47-17t17-49V58q0-31-16-48T141-8ZM57 771q-12-13-27-14t-26 6-15 20 6 27l73 101q14 21 32 30t41 10q23 0 41-9t33-31l72-101q11-14 8-26t-15-20-27-7-27 14l-85 98-84-98Z"/><glyph unicode="Ï" horiz-adv-x="282" d="M141-8Q110-8 94 9T77 58v589q0 32 16 49t48 17q31 0 47-17t17-49V58q0-31-16-48T141-8Zm95 794q-30 0-46 16t-16 46q0 29 16 45t46 16q29 0 45-16t16-45q0-30-15-46t-46-16Zm-189 0q-29 0-45 16t-17 46q0 29 16 45t46 16q30 0 46-16t16-45q0-30-16-46t-46-16Z"/><glyph unicode="Ð" horiz-adv-x="762" d="M145 0q-33 0-50 17T77 68v569q0 33 17 50t51 18h194q177 0 273-91t97-261q0-85-24-150T613 92 497 24 339 0H145Zm60 106h126q62 0 107 15t76 46 46 77 15 109q0 124-61 185t-183 61H205V106ZM32 310q-24 0-36 12t-13 35q0 23 12 35t37 12h323q23 0 36-11t13-36q0-22-13-34t-36-13H32Z"/><glyph unicode="Ñ" horiz-adv-x="748" d="M137-8Q108-8 93 8T77 54v595q0 31 15 47t41 17q23 0 34-8t28-29l383-497h-26v473q0 29 15 45t45 16q29 0 44-16t15-45V52q0-28-14-44T619-8q-23 0-36 9t-30 29L171 527h25V54q0-30-15-46T137-8Zm48 777q-16 1-25 11t-5 27q12 56 46 86t84 31q28 0 52-10t46-23 42-23 41-10q26 0 41 13t21 34q4 14 13 20t22 6q16-1 25-11t5-27q-12-56-45-86t-84-31q-28 0-52 10t-47 23-42 23-41 10q-25 0-41-13t-21-34q-4-13-12-20t-23-6Z"/><glyph unicode="Ò" horiz-adv-x="785" d="M393-10q-102 0-178 45T96 161 54 353q0 83 24 149t68 114 107 73 140 26q103 0 179-44t118-126 42-191q0-83-24-150T640 89 533 16 393-10Zm0 110q65 0 110 30t70 87 25 136q0 120-53 186t-152 66q-64 0-110-29t-70-86-25-137q0-119 54-186t151-67Zm-51 671-96 105q-13 14-12 28t10 26 25 17 30 3 27-21l78-115q9-14 6-27t-15-21-26-9-27 14Z"/><glyph unicode="Ó" horiz-adv-x="785" d="M393-10q-102 0-178 45T96 161 54 353q0 83 24 149t68 114 107 73 140 26q103 0 179-44t118-126 42-191q0-83-24-150T640 89 533 16 393-10Zm0 110q65 0 110 30t70 87 25 136q0 120-53 186t-152 66q-64 0-110-29t-70-86-25-137q0-119 54-186t151-67Zm50 671q-12-13-26-13t-26 7-15 22 5 27l78 115q11 17 26 20t31-1 24-17 11-26-12-29l-96-105Z"/><glyph unicode="Ô" horiz-adv-x="785" d="M393-10q-102 0-178 45T96 161 54 353q0 83 24 149t68 114 107 73 140 26q103 0 179-44t118-126 42-191q0-83-24-150T640 89 533 16 393-10Zm0 110q65 0 110 30t70 87 25 136q0 120-53 186t-152 66q-64 0-110-29t-70-86-25-137q0-119 54-186t151-67Zm-85 671q-12-13-27-14t-26 6-15 20 6 27l73 101q14 21 32 30t41 10q23 0 41-9t33-31l72-101q11-14 8-26t-15-20-27-7-27 14l-85 98-84-98Z"/><glyph unicode="Õ" horiz-adv-x="785" d="M393-10q-102 0-178 45T96 161 54 353q0 83 24 149t68 114 107 73 140 26q103 0 179-44t118-126 42-191q0-83-24-150T640 89 533 16 393-10Zm0 110q65 0 110 30t70 87 25 136q0 120-53 186t-152 66q-64 0-110-29t-70-86-25-137q0-119 54-186t151-67ZM203 769q-16 1-25 11t-5 27q12 56 46 86t84 31q28 0 52-10t46-23 42-23 41-10q26 0 41 13t21 34q4 14 13 20t22 6q16-1 25-11t5-27q-12-56-45-86t-84-31q-28 0-52 10t-47 23-42 23-41 10q-25 0-41-13t-21-34q-4-13-12-20t-23-6Z"/><glyph unicode="Ö" horiz-adv-x="785" d="M393-10q-102 0-178 45T96 161 54 353q0 83 24 149t68 114 107 73 140 26q103 0 179-44t118-126 42-191q0-83-24-150T640 89 533 16 393-10Zm0 110q65 0 110 30t70 87 25 136q0 120-53 186t-152 66q-64 0-110-29t-70-86-25-137q0-119 54-186t151-67Zm94 686q-30 0-46 16t-16 46q0 29 16 45t46 16q29 0 45-16t16-45q0-30-15-46t-46-16Zm-189 0q-29 0-45 16t-17 46q0 29 16 45t46 16q30 0 46-16t16-45q0-30-16-46t-46-16Z"/><glyph unicode="×" horiz-adv-x="600" d="M154 78q-16-16-33-15T91 76t-13 30 15 34l145 145L90 433q-13 13-14 27t4 26 19 19 26 5 28-15l147-147 147 147q16 16 34 15t30-13 14-30-15-34L362 285l145-145q13-13 15-27t-5-26-18-18-26-6-27 15L300 224 154 78Z"/><glyph unicode="Ø" horiz-adv-x="785" d="M393-10q-102 0-178 45T96 161 54 353q0 83 24 149t68 114 107 73 140 26q103 0 179-44t118-126 42-191q0-83-24-150T640 89 533 16 393-10Zm0 110q65 0 110 30t70 87 25 136q0 120-53 186t-152 66q-64 0-110-29t-70-86-25-137q0-119 54-186t151-67ZM227-29q-10-17-24-22t-29-1-25 15-13 26 8 34l45 75 36 60 263 451 26 48 45 77q10 17 24 22t29 1 25-14 13-26-8-34l-45-76-36-60L298 97l-26-48-45-78Z"/><glyph unicode="Ù" horiz-adv-x="738" d="M370-10q-73 0-128 19t-94 56-57 94-19 130v359q0 33 16 49t48 16q31 0 47-16t17-49V290q0-95 43-142t127-48q83 0 126 47t43 143v358q0 33 16 49t48 16q30 0 46-16t17-49V289q0-98-33-165T533 24 370-10Zm-50 781-96 105q-13 14-12 28t10 26 25 17 30 3 27-21l78-115q9-14 6-27t-15-21-26-9-27 14Z"/><glyph unicode="Ú" horiz-adv-x="738" d="M370-10q-73 0-128 19t-94 56-57 94-19 130v359q0 33 16 49t48 16q31 0 47-16t17-49V290q0-95 43-142t127-48q83 0 126 47t43 143v358q0 33 16 49t48 16q30 0 46-16t17-49V289q0-98-33-165T533 24 370-10Zm51 781q-12-13-26-13t-26 7-15 22 5 27l78 115q11 17 26 20t31-1 24-17 11-26-12-29l-96-105Z"/><glyph unicode="Û" horiz-adv-x="738" d="M370-10q-73 0-128 19t-94 56-57 94-19 130v359q0 33 16 49t48 16q31 0 47-16t17-49V290q0-95 43-142t127-48q83 0 126 47t43 143v358q0 33 16 49t48 16q30 0 46-16t17-49V289q0-98-33-165T533 24 370-10Zm-84 781q-12-13-27-14t-26 6-15 20 6 27l73 101q14 21 32 30t41 10q23 0 41-9t33-31l72-101q11-14 8-26t-15-20-27-7-27 14l-85 98-84-98Z"/><glyph unicode="Ü" horiz-adv-x="738" d="M370-10q-73 0-128 19t-94 56-57 94-19 130v359q0 33 16 49t48 16q31 0 47-16t17-49V290q0-95 43-142t127-48q83 0 126 47t43 143v358q0 33 16 49t48 16q30 0 46-16t17-49V289q0-98-33-165T533 24 370-10Zm95 796q-30 0-46 16t-16 46q0 29 16 45t46 16q29 0 45-16t16-45q0-30-15-46t-46-16Zm-189 0q-29 0-45 16t-17 46q0 29 16 45t46 16q30 0 46-16t16-45q0-30-16-46t-46-16Z"/><glyph unicode="Ý" horiz-adv-x="618" d="M309-8q-31 0-47 17t-17 50v304l27-77L31 625q-13 18-12 38t17 35 42 15q20 0 36-10t32-31l179-254h-28l180 254q16 22 31 31t37 10q26 0 40-13t15-34-14-42L347 286l26 77V59q0-67-64-67Zm51 779q-12-13-26-13t-26 7-15 22 5 27l78 115q11 17 26 20t31-1 24-17 11-26-12-29l-96-105Z"/><glyph unicode="Þ" horiz-adv-x="655" d="M141-3q-31 0-47 17T77 63v580q0 32 17 48t49 17q30 0 46-16t16-42v-63h180q116 0 179-58t63-162q0-104-63-162t-179-59H205V63q0-31-16-48T141-3Zm64 250h160q68 0 103 30t35 90q0 59-35 89t-103 30H205V247Z"/><glyph unicode="ß" horiz-adv-x="653" d="M436-10q-43 0-87 11t-82 33q-16 10-22 24t-4 28 12 25 24 13 30-6q33-19 68-26t63-8q37 0 58 15t21 43q0 23-20 38t-75 32q-79 24-111 57t-32 82q0 21 6 41t22 42 44 48q26 25 36 43t11 40q0 27-19 43t-58 16q-64 0-97-38t-34-108V56q0-31-16-47T127-8Q97-8 81 8T65 56v403q0 123 66 189t191 67q61 0 104-17t67-48 23-74q0-35-15-65t-53-65q-21-20-33-33t-16-24-5-23q0-21 20-36t78-33q74-22 106-58t33-90q0-48-24-83t-68-56-103-20Z"/><glyph unicode="à" horiz-adv-x="547" d="M226-10q-53 0-94 20T67 66t-24 79q0 54 28 85t91 46 169 14h50v-72h-49q-62 0-99-6t-52-20-16-41q0-33 23-54t64-21q33 0 58 15t41 43 15 62v115q0 50-22 72t-74 22q-29 0-62-7t-71-24q-19-9-33-5t-23 16-8 28 8 29 27 22q46 19 88 27t78 8q72 0 118-22t70-66 23-115V56q0-31-15-47T427-8q-28 0-43 16t-16 48v48h8q-7-35-27-60T297 4t-71-14Zm7 570-97 140q-11 17-9 32t14 26 27 15 31-1 25-25l75-149q8-16 3-29t-18-20-27-5-24 16Z"/><glyph unicode="á" horiz-adv-x="547" d="M226-10q-53 0-94 20T67 66t-24 79q0 54 28 85t91 46 169 14h50v-72h-49q-62 0-99-6t-52-20-16-41q0-33 23-54t64-21q33 0 58 15t41 43 15 62v115q0 50-22 72t-74 22q-29 0-62-7t-71-24q-19-9-33-5t-23 16-8 28 8 29 27 22q46 19 88 27t78 8q72 0 118-22t70-66 23-115V56q0-31-15-47T427-8q-28 0-43 16t-16 48v48h8q-7-35-27-60T297 4t-71-14Zm100 570q-10-14-24-16t-27 5-18 20 2 29l76 149q9 19 24 24t31 2 27-15 14-26-8-32l-97-140Z"/><glyph unicode="â" horiz-adv-x="547" d="M226-10q-53 0-94 20T67 66t-24 79q0 54 28 85t91 46 169 14h50v-72h-49q-62 0-99-6t-52-20-16-41q0-33 23-54t64-21q33 0 58 15t41 43 15 62v115q0 50-22 72t-74 22q-29 0-62-7t-71-24q-19-9-33-5t-23 16-8 28 8 29 27 22q46 19 88 27t78 8q72 0 118-22t70-66 23-115V56q0-31-15-47T427-8q-28 0-43 16t-16 48v48h8q-7-35-27-60T297 4t-71-14Zm195 607q9-16 4-29t-17-19-25-5-23 16l-81 126-81-126q-9-14-22-16t-26 4-17 20 4 29l72 132q12 23 29 34t41 11q23 0 41-11t30-34l71-132Z"/><glyph unicode="ã" horiz-adv-x="547" d="M226-10q-53 0-94 20T67 66t-24 79q0 54 28 85t91 46 169 14h50v-72h-49q-62 0-99-6t-52-20-16-41q0-33 23-54t64-21q33 0 58 15t41 43 15 62v115q0 50-22 72t-74 22q-29 0-62-7t-71-24q-19-9-33-5t-23 16-8 28 8 29 27 22q46 19 88 27t78 8q72 0 118-22t70-66 23-115V56q0-31-15-47T427-8q-28 0-43 16t-16 48v48h8q-7-35-27-60T297 4t-71-14ZM116 581q-15 1-23 10t-4 28q4 21 12 41t23 38 34 27 47 11q25 0 44-10t35-23 32-23 35-10q21 0 36 14t20 37q2 11 10 17t25 5q15-1 23-10t4-28q-5-27-19-54t-37-45-60-18q-25 0-44 10t-35 23-33 23-34 10q-21 0-36-14t-20-37q-2-11-10-17t-25-5Z"/><glyph unicode="ä" horiz-adv-x="547" d="M226-10q-53 0-94 20T67 66t-24 79q0 54 28 85t91 46 169 14h50v-72h-49q-62 0-99-6t-52-20-16-41q0-33 23-54t64-21q33 0 58 15t41 43 15 62v115q0 50-22 72t-74 22q-29 0-62-7t-71-24q-19-9-33-5t-23 16-8 28 8 29 27 22q46 19 88 27t78 8q72 0 118-22t70-66 23-115V56q0-31-15-47T427-8q-28 0-43 16t-16 48v48h8q-7-35-27-60T297 4t-71-14Zm148 603q-30 0-46 16t-16 46q0 29 16 45t46 16q29 0 45-16t16-45q0-30-15-46t-46-16Zm-189 0q-29 0-45 16t-17 46q0 29 16 45t46 16q30 0 46-16t16-45q0-30-16-46t-46-16Z"/><glyph unicode="å" horiz-adv-x="547" d="M226-10q-53 0-94 20T67 66t-24 79q0 54 28 85t91 46 169 14h50v-72h-49q-62 0-99-6t-52-20-16-41q0-33 23-54t64-21q33 0 58 15t41 43 15 62v115q0 50-22 72t-74 22q-29 0-62-7t-71-24q-19-9-33-5t-23 16-8 28 8 29 27 22q46 19 88 27t78 8q72 0 118-22t70-66 23-115V56q0-31-15-47T427-8q-28 0-43 16t-16 48v48h8q-7-35-27-60T297 4t-71-14Zm53 556q-35 0-64 16t-45 45-17 62q0 35 16 62t46 44 64 16q36 0 64-16t45-43 17-63q0-34-16-62t-45-44-65-17Zm0 57q29 0 47 19t18 47q0 28-18 46t-47 19q-28 0-46-18t-19-47q0-28 18-47t47-19Z"/><glyph unicode="æ" horiz-adv-x="865" d="M236-10q-58 0-101 20T67 66t-24 79q0 54 28 85t91 46 172 14h45v-72h-47q-62 0-99-6t-52-20-16-41q0-33 23-54t65-21q34 0 59 16t39 44 15 64v111q0 50-22 72t-73 22q-29 0-62-7t-71-24q-19-9-33-5t-23 16-8 28 8 29 27 22q46 19 88 27t78 8q69 0 114-25t65-77h-28q26 50 77 76t106 26q51 0 92-17t70-48 44-77 16-103v-2q0-18-12-26t-36-8H477v72h265l-15-15q0 45-13 76t-38 47-64 16q-39 0-67-18t-44-54-15-85v-7q0-83 36-124t111-41q26 0 58 6t62 23q21 12 37 11t25-12 12-24-5-30-26-26q-35-22-80-32t-85-11q-83 0-143 34t-85 105h23q-16-65-66-102T236-10Z"/><glyph unicode="ç" horiz-adv-x="472" d="M291-10q-77 0-134 31t-88 90-31 136q0 59 17 105t51 79 80 50 105 18q33 0 71-9t73-30q16-10 21-24t2-28-12-25-24-13-31 6q-22 13-45 19t-44 7q-33 0-58-10t-42-30-27-49-9-67q0-74 35-116t101-43q21 0 43 6t46 19q17 9 30 6t23-13 11-25-3-29-21-23Q398 8 361-1t-70-9Zm-6-185q-19 0-40 2t-38 9q-15 5-20 16t-3 23 14 18 26 0q13-4 25-6t26-2q26 0 40 7t14 23q0 11-8 17t-29 6h-14q-7 0-16-3-7-2-12-2t-11 5q-4 4-5 10t0 16l11 76h67l-13-76-32 11q12 4 24 6t22 2q41 0 66-19t25-53q0-39-33-62t-86-24Z"/><glyph unicode="è" horiz-adv-x="542" d="M306-10q-83 0-143 31t-92 88-33 135q0 76 31 133t87 89 127 33q52 0 93-17t71-49 45-77 16-103q0-18-12-27t-36-10H139v72h281l-16-15q0 46-13 77t-39 47-64 17q-42 0-71-19t-45-55-16-85v-7q0-82 38-122t114-41q26 0 58 6t62 23q21 12 37 11t25-12 12-24-5-30-26-26q-35-22-80-32t-85-11Zm-68 570-97 140q-11 17-9 32t14 26 27 15 31-1 25-25l75-149q8-16 3-29t-18-20-27-5-24 16Z"/><glyph unicode="é" horiz-adv-x="542" d="M306-10q-83 0-143 31t-92 88-33 135q0 76 31 133t87 89 127 33q52 0 93-17t71-49 45-77 16-103q0-18-12-27t-36-10H139v72h281l-16-15q0 46-13 77t-39 47-64 17q-42 0-71-19t-45-55-16-85v-7q0-82 38-122t114-41q26 0 58 6t62 23q21 12 37 11t25-12 12-24-5-30-26-26q-35-22-80-32t-85-11Zm25 570q-10-14-24-16t-27 5-18 20 2 29l76 149q9 19 24 24t31 2 27-15 14-26-8-32l-97-140Z"/><glyph unicode="ê" horiz-adv-x="542" d="M306-10q-83 0-143 31t-92 88-33 135q0 76 31 133t87 89 127 33q52 0 93-17t71-49 45-77 16-103q0-18-12-27t-36-10H139v72h281l-16-15q0 46-13 77t-39 47-64 17q-42 0-71-19t-45-55-16-85v-7q0-82 38-122t114-41q26 0 58 6t62 23q21 12 37 11t25-12 12-24-5-30-26-26q-35-22-80-32t-85-11Zm120 607q9-16 4-29t-17-19-25-5-23 16l-81 126-81-126q-9-14-22-16t-26 4-17 20 4 29l72 132q12 23 29 34t41 11q23 0 41-11t30-34l71-132Z"/><glyph unicode="ë" horiz-adv-x="542" d="M306-10q-83 0-143 31t-92 88-33 135q0 76 31 133t87 89 127 33q52 0 93-17t71-49 45-77 16-103q0-18-12-27t-36-10H139v72h281l-16-15q0 46-13 77t-39 47-64 17q-42 0-71-19t-45-55-16-85v-7q0-82 38-122t114-41q26 0 58 6t62 23q21 12 37 11t25-12 12-24-5-30-26-26q-35-22-80-32t-85-11Zm73 603q-30 0-46 16t-16 46q0 29 16 45t46 16q29 0 45-16t16-45q0-30-15-46t-46-16Zm-189 0q-29 0-45 16t-17 46q0 29 16 45t46 16q30 0 46-16t16-45q0-30-16-46t-46-16Z"/><glyph unicode="ì" horiz-adv-x="255" d="M127-7Q97-7 81 11T65 61v367q0 33 16 50t46 18q30 0 46-17t17-51V61q0-32-16-50T127-7ZM81 560l-97 140q-11 17-9 32t14 26 27 15 31-1 25-25l75-149q8-16 3-29t-18-20-27-5-24 16Z"/><glyph unicode="í" horiz-adv-x="255" d="M127-7Q97-7 81 11T65 61v367q0 33 16 50t46 18q30 0 46-17t17-51V61q0-32-16-50T127-7Zm47 567q-10-14-24-16t-27 5-18 20 2 29l76 149q9 19 24 24t31 2 27-15 14-26-8-32l-97-140Z"/><glyph unicode="î" horiz-adv-x="255" d="M127-7Q97-7 81 11T65 61v367q0 33 16 50t46 18q30 0 46-17t17-51V61q0-32-16-50T127-7Zm142 604q9-16 4-29t-17-19-25-5-23 16l-81 126-81-126q-9-14-22-16t-26 4-17 20 4 29l72 132q12 23 29 34t41 11q23 0 41-11t30-34l71-132Z"/><glyph unicode="ï" horiz-adv-x="255" d="M127-7Q97-7 81 11T65 61v367q0 33 16 50t46 18q30 0 46-17t17-51V61q0-32-16-50T127-7Zm95 600q-30 0-46 16t-16 46q0 29 16 45t46 16q29 0 45-16t16-45q0-30-15-46t-46-16Zm-189 0q-29 0-45 16t-17 46q0 29 16 45t46 16q30 0 46-16t16-45q0-30-16-46t-46-16Z"/><glyph unicode="ð" horiz-adv-x="581" d="M283-10q-73 0-128 29t-86 82-31 121q0 68 30 119t83 80 122 29q46 0 82-14t62-43 35-78h-27q1 86-37 148t-91 99l19-1-145-66q-22-10-38-4t-23 20-1 30 31 27l95 43 4-14q-17 8-36 15t-39 13q-24 7-33 22t-5 32 19 25 42 3q45-10 83-26t72-37l-32 1 123 56q22 10 38 4t24-20 2-29-29-26l-79-36 4 14q48-39 81-89t51-108 18-123q0-70-17-125t-50-94-82-59-111-20Zm4 96q39 0 67 16t42 48 15 72q0 62-32 98t-92 36q-38 0-65-16t-43-47-15-71q0-64 32-100t91-36Z"/><glyph unicode="ñ" horiz-adv-x="585" d="M127-8Q97-8 81 8T65 56v378q0 31 16 47t45 16q29 0 45-16t16-47v-68l-11 25q22 53 68 80t106 28q59 0 97-22t57-66 19-113V56q0-31-16-47T461-8q-30 0-46 16t-17 48v236q0 57-21 83t-67 26q-55 0-87-34t-33-92V56q0-64-63-64Zm4 589q-15 1-23 10t-4 28q4 21 12 41t23 38 34 27 47 11q25 0 44-10t35-23 32-23 35-10q21 0 36 14t20 37q2 11 10 17t25 5q15-1 23-10t4-28q-5-27-19-54t-37-45-60-18q-25 0-44 10t-35 23-33 23-34 10q-21 0-36-14t-20-37q-2-11-10-17t-25-5Z"/><glyph unicode="ò" horiz-adv-x="576" d="M288-10q-76 0-132 31t-87 88-31 136q0 59 17 105t51 80 79 51 103 18q76 0 132-31t87-88 31-135q0-59-17-106t-51-80-79-51-103-18Zm0 95q37 0 65 18t43 53 16 89q0 80-34 119t-90 40q-37 0-65-17t-43-53-16-89q0-79 34-119t90-41Zm-46 475-97 140q-11 17-9 32t14 26 27 15 31-1 25-25l75-149q8-16 3-29t-18-20-27-5-24 16Z"/><glyph unicode="ó" horiz-adv-x="576" d="M288-10q-76 0-132 31t-87 88-31 136q0 59 17 105t51 80 79 51 103 18q76 0 132-31t87-88 31-135q0-59-17-106t-51-80-79-51-103-18Zm0 95q37 0 65 18t43 53 16 89q0 80-34 119t-90 40q-37 0-65-17t-43-53-16-89q0-79 34-119t90-41Zm47 475q-10-14-24-16t-27 5-18 20 2 29l76 149q9 19 24 24t31 2 27-15 14-26-8-32l-97-140Z"/><glyph unicode="ô" horiz-adv-x="576" d="M288-10q-76 0-132 31t-87 88-31 136q0 59 17 105t51 80 79 51 103 18q76 0 132-31t87-88 31-135q0-59-17-106t-51-80-79-51-103-18Zm0 95q37 0 65 18t43 53 16 89q0 80-34 119t-90 40q-37 0-65-17t-43-53-16-89q0-79 34-119t90-41Zm142 512q9-16 4-29t-17-19-25-5-23 16l-81 126-81-126q-9-14-22-16t-26 4-17 20 4 29l72 132q12 23 29 34t41 11q23 0 41-11t30-34l71-132Z"/><glyph unicode="õ" horiz-adv-x="576" d="M288-10q-76 0-132 31t-87 88-31 136q0 59 17 105t51 80 79 51 103 18q76 0 132-31t87-88 31-135q0-59-17-106t-51-80-79-51-103-18Zm0 95q37 0 65 18t43 53 16 89q0 80-34 119t-90 40q-37 0-65-17t-43-53-16-89q0-79 34-119t90-41ZM125 581q-15 1-23 10t-4 28q4 21 12 41t23 38 34 27 47 11q25 0 44-10t35-23 32-23 35-10q21 0 36 14t20 37q2 11 10 17t25 5q15-1 23-10t4-28q-5-27-19-54t-37-45-60-18q-25 0-44 10t-35 23-33 23-34 10q-21 0-36-14t-20-37q-2-11-10-17t-25-5Z"/><glyph unicode="ö" horiz-adv-x="576" d="M288-10q-76 0-132 31t-87 88-31 136q0 59 17 105t51 80 79 51 103 18q76 0 132-31t87-88 31-135q0-59-17-106t-51-80-79-51-103-18Zm0 95q37 0 65 18t43 53 16 89q0 80-34 119t-90 40q-37 0-65-17t-43-53-16-89q0-79 34-119t90-41Zm95 508q-30 0-46 16t-16 46q0 29 16 45t46 16q29 0 45-16t16-45q0-30-15-46t-46-16Zm-189 0q-29 0-45 16t-17 46q0 29 16 45t46 16q30 0 46-16t16-45q0-30-16-46t-46-16Z"/><glyph unicode="÷" horiz-adv-x="600" d="M93 243q-21 0-33 11t-12 33q0 21 12 32t33 12h414q22 0 33-11t12-33q0-21-11-32t-34-12H93ZM294 35q-26 0-40 14t-15 41q0 26 14 40t41 15q26 0 40-14t15-41q0-26-14-40t-41-15Zm0 394q-26 0-40 14t-15 41q0 26 14 40t41 15q26 0 40-14t15-41q0-26-14-40t-41-15Z"/><glyph unicode="ø" horiz-adv-x="576" d="M288-10q-76 0-132 31t-87 88-31 136q0 59 17 105t51 80 79 51 103 18q76 0 132-31t87-88 31-135q0-59-17-106t-51-80-79-51-103-18Zm0 95q37 0 65 18t43 53 16 89q0 80-34 119t-90 40q-37 0-65-17t-43-53-16-89q0-79 34-119t90-41ZM171-34q-10-17-25-19t-29 5-19 23 6 33l302 516q10 17 25 19t29-6 19-23-5-33L171-34Z"/><glyph unicode="ù" horiz-adv-x="579" d="M242-10q-61 0-101 22T82 80 62 192v242q0 32 16 47t46 16q30 0 46-15t17-48V190q0-52 21-77t67-25q50 0 82 34t32 92v220q0 32 16 47t46 16q30 0 46-15t17-48V56q0-64-61-64-29 0-45 16t-16 48v76l14-30q-21-54-63-83T242-10Zm1 571-97 140q-11 17-9 32t14 26 27 15 31-1 25-25l75-149q8-16 3-29t-18-20-27-5-24 16Z"/><glyph unicode="ú" horiz-adv-x="579" d="M242-10q-61 0-101 22T82 80 62 192v242q0 32 16 47t46 16q30 0 46-15t17-48V190q0-52 21-77t67-25q50 0 82 34t32 92v220q0 32 16 47t46 16q30 0 46-15t17-48V56q0-64-61-64-29 0-45 16t-16 48v76l14-30q-21-54-63-83T242-10Zm94 571q-10-14-24-16t-27 5-18 20 2 29l76 149q9 19 24 24t31 2 27-15 14-26-8-32l-97-140Z"/><glyph unicode="û" horiz-adv-x="579" d="M242-10q-61 0-101 22T82 80 62 192v242q0 32 16 47t46 16q30 0 46-15t17-48V190q0-52 21-77t67-25q50 0 82 34t32 92v220q0 32 16 47t46 16q30 0 46-15t17-48V56q0-64-61-64-29 0-45 16t-16 48v76l14-30q-21-54-63-83T242-10Zm189 608q9-16 4-29t-17-19-25-5-23 16l-81 126-81-126q-9-14-22-16t-26 4-17 20 4 29l72 132q12 23 29 34t41 11q23 0 41-11t30-34l71-132Z"/><glyph unicode="ü" horiz-adv-x="579" d="M242-10q-61 0-101 22T82 80 62 192v242q0 32 16 47t46 16q30 0 46-15t17-48V190q0-52 21-77t67-25q50 0 82 34t32 92v220q0 32 16 47t46 16q30 0 46-15t17-48V56q0-64-61-64-29 0-45 16t-16 48v76l14-30q-21-54-63-83T242-10Zm142 604q-30 0-46 16t-16 46q0 29 16 45t46 16q29 0 45-16t16-45q0-30-15-46t-46-16Zm-189 0q-29 0-45 16t-17 46q0 29 16 45t46 16q30 0 46-16t16-45q0-30-16-46t-46-16Z"/><glyph unicode="ý" horiz-adv-x="526" d="M189-188q-22 0-36 11t-16 31 6 40l68 151V-7L29 414q-9 22-6 41t18 30 43 12q23 0 37-10t25-40l135-337h-30l138 338q11 28 26 38t40 11q22 0 35-11t16-30-7-41L256-140q-13-28-28-38t-39-10Zm122 748q-10-14-24-16t-27 5-18 20 2 29l76 149q9 19 24 24t31 2 27-15 14-26-8-32l-97-140Z"/><glyph unicode="þ" horiz-adv-x="600" d="M127-188q-30 0-46 16t-16 47v775q0 31 16 47t46 16q30 0 46-16t17-47V386h-13q15 51 61 82t109 31q64 0 112-31t76-87 27-136q0-78-27-135t-75-89-113-31q-61 0-107 30t-62 80h12v-225q0-31-16-47t-47-16ZM312 85q37 0 65 18t43 53 16 89q0 80-34 119t-90 40q-37 0-65-17t-43-53-16-89q0-79 34-119t90-41Z"/><glyph unicode="ÿ" horiz-adv-x="526" d="M189-188q-22 0-36 11t-16 31 6 40l68 151V-7L29 414q-9 22-6 41t18 30 43 12q23 0 37-10t25-40l135-337h-30l138 338q11 28 26 38t40 11q22 0 35-11t16-30-7-41L256-140q-13-28-28-38t-39-10Zm170 781q-30 0-46 16t-16 46q0 29 16 45t46 16q29 0 45-16t16-45q0-30-15-46t-46-16Zm-189 0q-29 0-45 16t-17 46q0 29 16 45t46 16q30 0 46-16t16-45q0-30-16-46t-46-16Z"/><glyph unicode="–" horiz-adv-x="500" d="M32 230q-17 0-28 11t-12 27q0 16 11 26t29 11h437q17 0 28-10t11-27q0-16-11-27t-28-11H32Z"/><glyph unicode="—" horiz-adv-x="1000" d="M32 230q-17 0-28 11t-12 27q0 16 11 26t29 11h937q17 0 28-10t11-27q0-16-11-27t-28-11H32Z"/><glyph unicode="‘" horiz-adv-x="248" d="M108 686q13 17 27 19t25-5 12-22-12-32q-20-25-27-50t-8-45l-4 33q35 0 56-20t22-54q0-32-20-52t-54-21q-35 0-55 24t-20 67q0 24 4 49t18 53 36 56Z"/><glyph unicode="’" horiz-adv-x="248" d="M141 460q-13-16-27-18t-26 5-12 22 13 32q20 25 27 50t7 44l5-33q-35 0-56 20t-22 54q0 33 20 53t54 21q35 0 55-23t20-68q0-24-4-49t-17-53-37-57Z"/><glyph unicode="‚" horiz-adv-x="248" d="M141-107q-13-16-27-18t-26 5-12 22 13 32q20 25 27 50t7 45l5-34Q93-5 72 15T50 70q0 32 20 52t54 21q35 0 55-23t20-68q0-24-4-49t-17-53-37-57Z"/><glyph unicode="“" horiz-adv-x="443" d="M108 686q13 17 27 19t25-5 12-22-12-32q-20-25-27-50t-8-45l-4 33q35 0 56-20t22-54q0-32-20-52t-54-21q-35 0-55 24t-20 67q0 24 4 49t18 53 36 56Zm195 0q13 17 27 19t25-5 12-22-12-32q-20-25-27-50t-8-45l-4 33q35 0 56-20t22-54q0-32-20-52t-54-21q-35 0-55 24t-20 67q0 24 4 49t18 53 36 56Z"/><glyph unicode="”" horiz-adv-x="443" d="M141 460q-13-16-27-18t-26 5-12 22 13 32q20 25 27 50t7 44l5-33q-35 0-56 20t-22 54q0 33 20 53t54 21q35 0 55-23t20-68q0-24-4-49t-17-53-37-57Zm195 0q-13-16-27-18t-26 5-12 22 13 32q20 25 27 50t7 44l5-33q-35 0-56 20t-22 54q0 33 20 53t54 21q35 0 55-23t20-68q0-24-4-49t-17-53-37-57Z"/><glyph unicode="„" horiz-adv-x="443" d="M141-107q-13-16-27-18t-26 5-12 22 13 32q20 25 27 50t7 45l5-34Q93-5 72 15T50 70q0 32 20 52t54 21q35 0 55-23t20-68q0-24-4-49t-17-53-37-57Zm195 0q-13-16-27-18t-26 5-12 22 13 32q20 25 27 50t7 45l5-34q-35 0-56 20t-22 55q0 32 20 52t54 21q35 0 55-23t20-68q0-24-4-49t-17-53-37-57Z"/><glyph unicode="•" horiz-adv-x="524" d="M262 88q-49 0-90 23t-66 64-25 90q0 46 23 86t65 66 93 26q48 0 89-23t67-63 25-92q0-49-24-89t-66-64-91-24Z"/><glyph unicode="‹" horiz-adv-x="287" d="M206 83q-17-7-33-3t-27 21L68 225q-13 20-13 40t13 42l76 123q11 17 27 21t34-3q19-8 25-27t-4-41l-54-114 54-115q10-21 5-40t-25-28Z"/><glyph unicode="›" horiz-adv-x="287" d="M81 83q-19 8-24 27t4 41l55 115-55 114q-10 22-4 41t26 27q17 8 34 4t27-22l75-123q13-21 13-41t-13-41l-77-124q-10-16-27-20t-34 2Z"/></font>
</defs>
</svg>
