<svg xmlns="http://www.w3.org/2000/svg"><defs><font id="Nunito" horiz-adv-x="566"><font-face font-family="Nunito ExtraLight" ascent="1011" descent="-353" alphabetic="0"/><glyph horiz-adv-x="258"/><glyph unicode="!" horiz-adv-x="228" d="M115 179q-12 0-19 8t-9 24L67 659q-1 24 11 38t37 15q23 0 35-14t11-39l-20-448q0-16-7-24t-19-8Zm0-183Q90-4 75 11T60 51q0 24 15 39t40 16q25 0 39-15t15-40q0-24-14-39T115-4Z"/><glyph unicode="&quot;" horiz-adv-x="392" d="M111 421q-11 0-19 8t-11 24L67 663q-2 21 10 35t34 14q14 0 24-6t15-18 5-25l-14-210q-1-15-9-23t-21-9Zm171 0q-11 0-19 8t-11 24l-14 210q-2 21 10 35t34 14q14 0 24-6t15-18 5-25l-14-210q-1-15-9-23t-21-9Z"/><glyph unicode="#" horiz-adv-x="600" d="M120-7Q104-7 98 3t-3 29l30 157 29-7H69q-11 0-19 3t-13 10-4 16q0 15 9 22t27 8h96l-32-8 49 249 24-10H89q-11 0-19 3t-13 11-4 16q0 15 9 22t27 7h127l-27-7 30 155q4 18 13 25t25 8q15 0 21-10t3-29l-27-142h159l28 148q4 18 14 25t24 8q15 0 21-10t4-29l-29-149-24 7h80q12 0 20-3t12-10 4-16q0-14-9-22t-27-8h-91l27 10-48-249-25 8h117q12 0 20-3t12-10 4-17q0-14-9-21t-27-8H384l27 7-32-163q-3-18-12-25t-25-8q-15 0-22 10t-4 29l29 150H187L157 26q-3-18-12-25t-25-8Zm78 248h158l46 231H243l-45-231Z"/><glyph unicode="$" horiz-adv-x="600" d="M310-122q-15 0-24 10t-10 24V12l18-17q-70 1-128 19T68 62q-11 8-15 19t-3 23 10 19 19 9 25-7q33-23 80-40t117-17q58 0 95 15t55 42 18 63q0 28-13 49t-41 36-75 25l-100 21q-91 20-135 65T61 504q0 58 28 103t80 72 119 30l-12-14v98q0 14 9 24t25 10q14 0 24-10t10-24v-98l-13 14q47-1 99-20t90-54q10-9 12-19t0-20-11-16-19-7-25 8q-33 27-73 41t-98 15q-75 0-119-36t-45-95q0-46 28-73t91-41l101-22q98-21 144-63t46-115q0-57-29-99t-79-67T328-4l16 17V-88q0-14-9-24t-25-10Z"/><glyph unicode="%" horiz-adv-x="930" d="M300-1q-7-13-17-17t-20-3-17 10-8 19 5 24l386 672q7 13 17 17t20 3 17-11 8-19-5-23L300-1Zm-74 283q-80 0-125 57T56 498q0 68 20 116t59 73 91 26q79 0 124-56t46-159q0-68-20-116t-59-74-91-26Zm0 59q31 0 53 18t35 53 12 86q0 78-27 117t-73 39q-31 0-53-17t-35-52-12-87q0-78 26-117t74-40ZM704-9q-79 0-124 57t-46 159q0 68 20 116t59 73 91 26q80 0 125-56t45-159q0-68-20-116t-58-74-92-26Zm0 59q32 0 54 17t34 53 12 87q0 78-26 117t-74 39q-31 0-53-17t-34-52-12-87q0-79 26-118t73-39Z"/><glyph unicode="&amp;" horiz-adv-x="693" d="M287-9q-70 0-121 22T89 76t-27 93q0 34 9 62t27 54 47 50 65 49l32 21-11-17q-48 52-67 90t-20 80q0 46 21 81t60 55 92 20q70 0 114-38t44-105q0-36-14-67t-47-63-92-67l2 21 187-210h-18q14 24 24 55t18 67 11 78q2 17 11 26t26 9q17 0 26-10t7-29q-4-50-14-95t-26-83-36-71l-1 24 99-109q13-13 13-25T641 1t-26-8q-14 0-23 5t-21 17l-76 86h21q-42-52-101-81T287-9Zm4 67q57 0 101 24t78 70l-1-25-212 232 32-3-31-20q-43-28-68-52t-37-51-11-58q0-55 38-86t111-31Zm26 593q-43 0-70-25t-27-66q0-22 6-40t24-41 47-58l-21-1q48 31 76 54t40 46 12 47q0 39-24 61t-63 23Z"/><glyph unicode="'" horiz-adv-x="221" d="M111 421q-11 0-19 8t-11 24L67 663q-2 21 10 35t34 14q14 0 24-6t15-18 5-25l-14-210q-1-15-9-23t-21-9Z"/><glyph unicode="(" horiz-adv-x="317" d="M210-169Q154-66 128 42t-26 221q0 75 11 148t36 144 61 140q7 13 19 16t24-1 17-17-2-32q-26-66-44-132t-27-132-9-134q0-68 9-134T225-2t43-133q8-19 3-31t-17-17-24-2-20 16Z"/><glyph unicode=")" horiz-adv-x="317" d="M108-169q-8-13-20-16t-24 2-17 17 2 31Q76-68 93-3t27 132 9 134q0 68-9 134T93 528 49 661q-7 19-2 31t17 17 23 2 21-16q55-102 81-211t26-221q0-75-11-148T169-30t-61-139Z"/><glyph unicode="*" horiz-adv-x="450" d="M128 368q-13 7-14 20t7 28l70 110 11-16-131-5q-18 0-28 7t-11 23q0 14 10 21t29 7l131-5-11-15-69 111q-10 15-8 28t14 20q12 7 24 1t21-22l57-110h-10l57 110q9 16 21 22t25-1q12-8 13-21t-8-28l-69-110-11 15 131 5q18 1 28-6t11-22q0-15-10-22t-29-8l-131 5 11 16 69-110q10-15 9-27t-14-20q-13-8-25-2t-21 21l-57 110h10l-58-110q-8-16-20-22t-24 2Z"/><glyph unicode="+" horiz-adv-x="600" d="M300 33q-16 0-24 9t-8 24v190H81q-15 0-23 8t-9 23q0 15 8 23t24 8h187v184q0 16 8 24t24 9q16 0 24-8t8-25V318h187q15 0 23-8t9-23q0-15-8-23t-24-8H332V66q0-15-8-24t-24-9Z"/><glyph unicode="," horiz-adv-x="228" d="M124-95q-10-13-21-15t-19 4-8 17 9 24q16 21 22 42t6 40l4-21Q91-4 76 11T60 51q0 24 14 39t39 16q26 0 41-17t15-51q0-21-4-43t-14-46-27-44Z"/><glyph unicode="-" horiz-adv-x="424" d="M100 233q-15 0-25 9t-10 24q0 15 10 24t25 10h225q14 0 24-9t10-25q0-14-10-23t-24-10H100Z"/><glyph unicode="." horiz-adv-x="228" d="M115-4Q90-4 75 11T60 51q0 24 15 39t40 16q25 0 39-15t15-40q0-24-14-39T115-4Z"/><glyph unicode="/" horiz-adv-x="283" d="M55-34q-5-13-13-19t-20-6-19 5-13 16 0 23l238 738q5 13 14 19t19 6 19-5 12-16 0-23L55-34Z"/><glyph unicode="0" horiz-adv-x="600" d="M300-9Q179-9 116 84T53 353q0 118 28 198t83 122 136 41q122 0 184-91t63-269q0-118-28-199T436 33 300-9Zm0 71q84 0 124 71t41 221q0 150-40 219t-125 70q-83 0-124-70t-41-219q0-149 41-220t124-72Z"/><glyph unicode="1" horiz-adv-x="600" d="M155 0q-18 0-28 9t-10 27q0 17 10 25t28 9h130v567h43l-145-96q-13-7-24-6t-19 8-11 18 1 22 17 20l138 91q13 8 25 13t24 5q14 0 23-8t10-27V70h120q18 0 28-8t10-26q0-18-10-27t-28-9H155Z"/><glyph unicode="2" horiz-adv-x="600" d="M129 0q-22 0-32 10T86 39q0 11 5 21t16 22l224 240q51 55 73 101t23 95q0 60-36 91t-107 32q-45 0-85-14t-77-43q-13-10-23-9t-19 8-11 18 0 22 16 20q39 32 94 51t112 20q71 0 120-22t74-64 25-104q0-42-13-82t-41-83-72-87L171 47v23h337q19 0 28-8t10-26q0-18-9-27t-29-9H129Z"/><glyph unicode="3" horiz-adv-x="600" d="M292-9Q234-9 176 8T74 58q-13 9-17 20t-2 22 11 18 19 9 26-8q44-29 88-42t91-13q51 0 86 15t53 44 18 73q0 62-41 94t-119 32h-71q-19 0-29 9t-10 27q0 16 10 25t29 10h64q46 0 78 16t51 45 18 72q0 56-36 85t-104 30q-45 0-85-13t-79-44q-12-9-23-9t-19 7-11 18 0 22 17 22q40 34 94 52t111 18q68 0 116-21t75-62 26-98q0-43-16-78t-46-61-72-36v11q73-12 113-59t41-120q0-61-28-105t-82-69T292-9Z"/><glyph unicode="4" horiz-adv-x="600" d="M418-7q-19 0-30 11t-11 31v116H90q-20 0-31 9t-12 28q0 11 5 22t18 30l305 444q9 14 20 21t26 7q16 0 27-10t12-32V221h73q19 0 29-9t10-26q0-17-10-26t-29-9h-73V35q0-20-11-31T418-7Zm-41 228v388h24L121 199v22h256Z"/><glyph unicode="5" horiz-adv-x="600" d="M315-9Q258-9 202 8T99 61q-12 8-16 19t-1 22 11 18 19 9 25-8q41-29 85-43t92-14q49 0 84 18t54 52 19 79q0 69-40 113t-110 44q-43 0-79-16t-66-51q-7-8-16-13t-22-6q-17 0-26 9t-10 26v348q0 19 10 28t28 10h340q19 0 28-9t10-26q0-17-9-26t-29-9H183V354h-22q26 42 72 64t103 23q67 0 115-28t75-78 27-118q0-66-29-117t-82-80T315-9Z"/><glyph unicode="6" horiz-adv-x="600" d="M324-9q-83 0-141 40T94 149 64 335q0 92 19 162t56 118 90 74 120 25q46 0 94-18t86-51q11-8 13-19t0-22-10-18-19-7-23 8q-34 29-70 41t-73 13q-65 0-110-32t-69-96-24-162v-93h-9q6 57 33 98t71 64 97 22q62 0 110-28t75-78 27-116q0-66-28-118t-79-81T324-9Zm-5 70q44 0 78 19t53 55 19 82q0 46-19 81t-53 55-78 20q-44 0-78-20t-53-55-19-81q0-46 19-81t53-55 78-20Z"/><glyph unicode="7" horiz-adv-x="600" d="M168-7q-14 0-24 7t-12 19 5 28l321 623v-36H98q-18 0-28 9t-10 27q0 17 10 26t28 9h397q18 0 29-9t11-26q0-14-3-24t-10-24L214 21q-7-14-18-21t-28-7Z"/><glyph unicode="8" horiz-adv-x="600" d="M300-9q-79 0-135 23T79 81 49 187q0 49 20 87t56 63 83 30v-15q-65 14-103 61T66 526q0 60 28 101t82 64 124 23q72 0 124-22t82-64 29-102q0-43-17-79t-50-61-75-33v14q71-10 114-58t44-122q0-62-29-106t-86-67T300-9Zm0 68q85 0 128 33t44 100q0 66-43 98t-129 33q-84 0-128-32t-44-99q0-67 44-100t128-33Zm0 332q49 0 83 15t54 45 19 68q0 60-41 93t-115 34q-73 0-114-33t-41-94q0-60 41-94t114-34Z"/><glyph unicode="9" horiz-adv-x="600" d="M251-9q-45 0-94 18T71 61q-11 8-13 19t0 21 10 18 19 8 23-8q34-29 70-42t73-13q65 0 110 32t69 97 24 161v93h9q-6-56-33-98t-71-64-97-22q-62 0-110 28t-75 79-27 115q0 67 28 118t79 81 117 30q83 0 141-40t89-118 30-186q0-92-19-162T461 90t-90-74T251-9Zm30 341q45 0 79 20t53 55 19 82q0 46-19 81t-53 55-79 20q-44 0-77-20t-53-55-20-81q0-46 19-81t53-56 78-20Z"/><glyph unicode=":" horiz-adv-x="228" d="M115-4Q90-4 75 11T60 51q0 24 15 39t40 16q25 0 39-15t15-40q0-24-14-39T115-4Zm0 384q-25 0-40 16t-15 39q0 25 15 40t40 15q25 0 39-15t15-40q0-23-14-39t-40-16Z"/><glyph unicode=";" horiz-adv-x="228" d="M124-95q-10-13-21-15t-19 4-8 17 9 24q16 21 22 42t6 40l4-21Q91-4 76 11T60 51q0 24 14 39t39 16q26 0 41-17t15-51q0-21-4-43t-14-46-27-44Zm-9 475q-25 0-40 16t-15 39q0 25 15 40t40 15q25 0 39-15t15-40q0-23-14-39t-40-16Z"/><glyph unicode="&lt;" horiz-adv-x="600" d="M512 49 87 242q-33 14-33 45 0 16 8 27t25 18l425 193q13 6 22 3t16-10 6-18-3-18-17-15L89 267v40l447-200q13-6 17-14t4-19-7-17-15-10-23 2Z"/><glyph unicode="=" horiz-adv-x="600" d="M81 356q-15 0-23 8t-9 23q0 15 8 23t24 8h438q15 0 23-8t9-23q0-15-8-23t-24-8H81Zm0-199q-15 0-23 8t-9 23q0 15 8 22t24 8h438q15 0 23-7t9-23q0-16-8-23t-24-8H81Z"/><glyph unicode="&gt;" horiz-adv-x="600" d="M88 49q-12-5-22-3T51 56t-7 18 4 18 16 15l448 200v-40L64 467q-11 6-16 14t-4 19 6 17 16 11 22-3l426-193q32-14 32-45 0-15-8-26t-24-19L88 49Z"/><glyph unicode="?" horiz-adv-x="443" d="M209 180q-13 0-20 8t-7 24q0 35 8 65t27 63 51 69q25 30 40 53t21 44 7 44q0 42-30 66t-83 25q-46 0-84-13t-75-41q-15-10-27-10t-21 7-10 18 2 23 20 22q39 31 92 49t107 18q57 0 100-19t68-55 24-84q0-31-9-59t-28-58-55-66q-31-32-50-59t-28-53-13-54q-1-12-8-19t-19-8ZM208-4q-25 0-40 15t-16 40q0 24 15 39t41 16q25 0 39-15t15-40q0-24-14-39T208-4Z"/><glyph unicode="@" horiz-adv-x="946" d="M485-163q-96 0-174 30T177-45 91 92 61 273q0 98 31 179t90 139 139 91 177 32q116 0 203-46t135-130 49-194q0-87-24-151t-66-99-100-35q-60 0-90 34t-27 94l19-5q-25-60-71-91t-97-32q-77 0-119 48t-43 134q0 73 28 130t77 91 111 33q54 0 89-27t45-76h-11l11 67q5 32 37 32 17 0 24-9t5-28l-40-227q-2-13-3-25t-1-22q0-33 15-50t45-17q39 0 67 29t45 81 17 121q0 95-41 165T671 618t-174 39q-111 0-195-48T171 475t-47-202q0-119 44-204T294-61t191-46q73 0 133 21t101 57q14 11 26 10t19-11 6-21-15-24q-46-40-115-64t-155-24Zm-47 280q45 0 79 27t55 74 20 107q0 56-25 84t-77 28q-44 0-79-25t-55-69-21-102q0-60 27-92t76-32Z"/><glyph unicode="A" horiz-adv-x="729" d="M72-7Q56-7 47 0T36 20t5 29l275 626q9 20 21 28t28 9q15 0 27-8t21-29L689 49q8-16 7-29T685 0t-25-7q-18 0-29 9t-18 28l-74 171 40-21H149l41 21-73-171q-9-19-19-28T72-7Zm292 616L203 230l-24 19h370l-22-19-161 379h-2Z"/><glyph unicode="B" horiz-adv-x="676" d="M132 0q-22 0-33 11T87 45v615q0 22 11 33t34 12h237q73 0 123-21t78-63 27-100q0-66-38-110t-105-58v14q75-9 117-54t43-119q0-94-61-144T381 0H132Zm35 66h206q80 0 120 32t40 97q0 66-40 97t-120 32H167V66Zm0 324h190q78 0 118 32t41 92q0 62-40 93t-119 32H167V390Z"/><glyph unicode="C" horiz-adv-x="673" d="M392-9Q288-9 214 35T101 160 61 353q0 84 22 150t65 113 105 72 139 26q62 0 118-17t97-52q13-10 17-22t2-24-12-19-21-8-27 10q-36 29-79 43t-93 14q-79 0-134-33t-83-98-28-155q0-91 28-155t83-98 134-34q49 0 93 14t81 44q15 10 27 10t20-8 11-18 1-23-16-21q-42-36-98-54T392-9Z"/><glyph unicode="D" horiz-adv-x="742" d="M132 0q-22 0-33 11T87 45v615q0 22 11 33t34 12h193q171 0 264-90t93-262q0-86-23-151T589 91 477 23 325 0H132Zm37 70h150q70 0 121 18t86 53 52 88 17 124q0 141-69 211t-207 71H169V70Z"/><glyph unicode="E" horiz-adv-x="583" d="M132 0q-22 0-33 11T87 45v615q0 22 11 33t34 12h372q17 0 26-9t9-25q0-17-9-26t-26-9H167V392h316q17 0 26-8t9-26q0-17-9-26t-26-9H167V69h337q17 0 26-9t9-25q0-17-9-26t-26-9H132Z"/><glyph unicode="F" horiz-adv-x="548" d="M131-7Q110-7 99 4T87 38v622q0 22 11 33t34 12h363q17 0 26-9t9-25q0-17-9-26t-26-9H169V390h305q17 0 26-9t10-25q0-17-9-26t-27-9H169V38q0-45-38-45Z"/><glyph unicode="G" horiz-adv-x="726" d="M409-9Q296-9 219 34T101 158 61 352q0 84 22 151t66 113 106 72 142 26q63 0 122-17t105-56q12-9 15-20t0-22-11-18-19-9-24 7q-41 32-87 46t-102 15q-80 0-135-34t-84-98-29-156q0-140 65-214t198-74q48 0 94 9t87 27l-18-47v249H431q-18 0-27 9t-9 24q0 16 9 24t27 8h179q17 0 26-9t9-26V71q0-15-5-25t-17-15Q581 14 523 3T409-9Z"/><glyph unicode="H" horiz-adv-x="761" d="M128-7Q108-7 98 4T87 36v633q0 21 10 32t31 11q20 0 30-11t11-32V393h423v276q0 21 10 32t31 11q20 0 30-11t11-32V36q0-20-10-31T633-7q-20 0-30 11t-11 32v286H169V36q0-20-10-31T128-7Z"/><glyph unicode="I" horiz-adv-x="257" d="M128-7Q108-7 98 4T87 36v633q0 21 10 32t31 11q20 0 30-11t11-32V36q0-20-10-31T128-7Z"/><glyph unicode="J" horiz-adv-x="324" d="M28-6Q9-7-1 4t-11 27q0 12 7 22t24 11l31 2q51 4 78 35t27 87v482q0 21 10 31t31 11q20 0 30-10t11-32V187q0-57-20-98t-59-65T61-3L28-6Z"/><glyph unicode="K" horiz-adv-x="625" d="M128-7Q108-7 98 4T87 36v634q0 21 10 31t31 11q20 0 30-10t11-32V385h2l326 304q12 12 24 17t26 6q19 0 27-9t7-22-14-25L226 340l1 44L583 55q15-14 16-28t-8-24-29-10q-15 0-25 6t-24 20L171 332h-2V36q0-20-10-31T128-7Z"/><glyph unicode="L" horiz-adv-x="543" d="M129 0q-20 0-31 11T87 43v624q0 21 10 32t31 11q20 0 30-11t11-32V72h328q18 0 28-9t10-27q0-17-10-26T497 0H129Z"/><glyph unicode="M" horiz-adv-x="855" d="M127-7Q109-7 99 3T89 33v639q0 20 10 30t28 10q16 0 25-6t18-22l274-516h-30l273 516q8 15 17 21t26 7q17 0 27-10t10-30V33q0-19-9-29T729-7q-18 0-28 10t-10 30v562h24L465 126q-7-13-14-18t-22-6q-14 0-22 6t-14 18L140 596h24V33q0-19-9-29T127-7Z"/><glyph unicode="N" horiz-adv-x="740" d="M126-7Q107-7 97 3T87 34v636q0 20 10 31t26 11q16 0 23-5t18-20l436-581h-24v566q0 19 10 29t29 11q18 0 27-10t10-30V33q0-19-8-29T619-7q-15 0-24 6t-19 19L141 599h23V34q0-20-10-30T126-7Z"/><glyph unicode="O" horiz-adv-x="767" d="M383-9q-98 0-170 44T101 161 61 353q0 84 22 150t65 113 101 72 134 26q100 0 172-44t112-124 40-192q0-84-23-151T619 89 518 17 383-9Zm0 73q76 0 128 34t81 99 28 156q0 137-61 212t-176 76q-74 0-126-34t-81-98-28-156q0-136 62-212t173-77Z"/><glyph unicode="P" horiz-adv-x="633" d="M128-7Q108-7 98 4T87 36v627q0 21 11 31t31 11h237q113 0 174-55t61-157q0-100-61-156t-174-56H169V36q0-20-10-31T128-7Zm41 357h187q81 0 122 36t42 107q0 71-41 107t-123 37H169V350Z"/><glyph unicode="Q" horiz-adv-x="767" d="M627-133q10-15 9-27t-10-21-21-11-24 2-22 21L494-66q-16 28-44 42T383-9l68 29q47 0 74-16t55-61l47-76ZM383-9q-98 0-170 44T101 161 61 353q0 84 22 150t65 113 101 72 134 26q100 0 172-44t112-124 40-192q0-84-23-151T619 89 518 17 383-9Zm0 73q76 0 128 34t81 99 28 156q0 137-61 212t-176 76q-74 0-126-34t-81-98-28-156q0-136 62-212t173-77Z"/><glyph unicode="R" horiz-adv-x="669" d="M128-7Q108-7 98 4T87 36v627q0 21 11 31t31 11h237q113 0 174-53t61-151q0-62-27-107t-81-69-127-24l10 13h20q39 0 68-20t53-64l96-179q8-14 8-27T611 2t-26-9q-17 0-28 8t-19 23L429 226q-23 43-53 57t-79 15H169V36q0-20-10-31T128-7Zm41 370h185q82 0 124 34t42 104q0 67-42 101t-124 35H169V363Z"/><glyph unicode="S" horiz-adv-x="615" d="M315-9q-47 0-92 8t-83 23-70 38q-12 9-16 20t-3 23 10 20 19 9 24-7q45-32 96-46t115-15q90 0 133 33t44 89q0 45-31 70t-106 41l-104 21q-94 20-140 65T64 505q0 47 19 85t53 66 81 43 104 15q63 0 117-17t99-53q11-9 15-20t1-22-10-18-19-8-26 8q-40 30-83 43t-95 14q-53 0-91-16t-60-46-22-71q0-48 29-76t97-41l104-22q101-21 149-63t49-116q0-44-18-81t-52-63-82-41T315-9Z"/><glyph unicode="T" horiz-adv-x="602" d="M301-7q-19 0-30 11t-11 32v598H35q-18 0-28 10t-10 26q0 17 10 26t28 9h533q18 0 28-9t10-26q0-17-10-26t-28-10H343V36q0-20-10-31T301-7Z"/><glyph unicode="U" horiz-adv-x="728" d="M365-9Q295-9 243 9t-89 55-54 91-18 124v391q0 21 10 31t31 11q20 0 30-10t11-32V283q0-110 51-164t150-55q99 0 149 54t50 165v387q0 21 11 31t31 11q19 0 29-10t11-32V279q0-93-31-158t-95-97T365-9Z"/><glyph unicode="V" horiz-adv-x="689" d="M345-7q-19 0-31 9t-19 27L20 658q-7 17-4 28t13 19 25 7q19 0 28-8t16-25L362 66h-32l263 614q7 15 17 23t28 9q14 0 23-7t12-19-4-28L394 29q-7-18-18-27t-31-9Z"/><glyph unicode="W" horiz-adv-x="1101" d="M313-7q-18 0-29 9t-18 29L45 662q-7 21 3 35t34 15q17 0 27-8t17-27L333 70h-35l211 604q7 19 17 28t27 10q16 0 25-9t17-29L803 70h-31l209 607q5 17 15 26t28 9q21 0 31-14t2-36L835 31q-7-19-17-28T788-7q-18 0-28 9t-19 29L540 610h22L359 31q-7-19-17-28T313-7Z"/><glyph unicode="X" horiz-adv-x="650" d="M78-7Q61-7 51 2T39 24t9 26l242 326v-31L62 653q-11 15-10 28t11 22 26 9q14 0 24-6t21-21l205-281h-26l204 281q10 15 20 21t24 6q16 0 26-8t12-22-10-29L361 345v31L603 50q10-13 9-26T600 2t-27-9q-13 0-23 6t-22 21L309 319h32L122 20Q112 6 101 0T78-7Z"/><glyph unicode="Y" horiz-adv-x="596" d="M298-7q-20 0-30 11t-11 33v328l18-57L24 654q-9 13-9 26t11 23 26 9q14 0 25-6t20-21l213-294h-21l213 294q11 15 21 21t24 6q16 0 25-8t9-22-9-29L322 308l17 57V37q0-44-41-44Z"/><glyph unicode="Z" horiz-adv-x="589" d="M86 0Q70 0 60 6T46 24t-1 26 16 30l416 586v-32H80q-19 0-29 9t-10 27q0 17 10 26t29 9h434q16 0 26-6t14-18 1-26-15-30L124 40v31h411q19 0 29-9t10-26q0-18-10-27t-29-9H86Z"/><glyph unicode="[" horiz-adv-x="315" d="M145-180q-15 0-25 10t-11 25v815q0 15 10 25t26 10h136q15 0 24-9t9-23q0-13-9-22t-24-10h-91v-757h91q15 0 24-9t9-23q0-13-9-22t-24-10H145Z"/><glyph unicode="\" horiz-adv-x="283" d="M228-34-10 704q-4 13 0 23t12 15 19 6 20-6 14-19L292-15q4-13 1-23t-12-15-20-6-19 6-14 19Z"/><glyph unicode="]" horiz-adv-x="315" d="M34-180q-15 0-24 9t-9 23q0 13 9 22t24 10h91v757H34q-15 0-24 9t-9 23q0 14 9 23t24 9h137q15 0 25-10t10-25v-815q0-15-10-25t-25-10H34Z"/><glyph unicode="^" horiz-adv-x="600" d="M91 133q-21 0-27 13t1 32l195 430q6 15 16 21t24 6q28 0 40-27l195-430q9-19 3-32t-29-13q-11 0-19 6t-14 20L280 595h40L124 159q-7-14-14-20t-19-6Z"/><glyph unicode="_" horiz-adv-x="500" d="M42-53q-12 0-20 7t-9 19q0 11 8 19t21 8h416q12 0 20-8t9-19q0-11-8-18t-21-8H42Z"/><glyph unicode="`" horiz-adv-x="356" d="M207 556 106 712q-8 12-6 23t10 19 19 10 22-1 18-18l84-163q6-12 3-21t-13-13-19-4-17 12Z"/><glyph unicode="a" horiz-adv-x="530" d="M229-9q-50 0-89 19T77 64t-23 76q0 54 27 85t91 44 174 13h45v-53h-44q-81 0-127-7t-65-26-19-51q0-41 28-67t78-26q40 0 70 19t48 52 18 76v114q0 62-25 89t-82 28q-35 0-70-9t-74-29q-14-7-24-5t-16 11-7 18 4 21 18 16q44 22 87 32t82 10q63 0 104-20t61-62 20-107V35q0-20-9-31T419-7q-19 0-29 11t-10 31v78h9q-8-38-30-65T303 6 229-9Z"/><glyph unicode="b" horiz-adv-x="583" d="M322-9q-66 0-113 34t-64 91l11 11V35q0-20-10-31T116-7Q96-7 86 4T76 35v636q0 20 10 30t30 11q19 0 30-10t11-31V373h-12q17 56 64 89t113 33q66 0 114-30t74-87 27-135q0-77-26-133t-75-88T322-9Zm-17 65q46 0 79 22t52 64 19 101q0 91-40 139t-110 48q-45 0-79-21t-52-63-19-103q0-90 41-138t109-49Z"/><glyph unicode="c" horiz-adv-x="463" d="M282-9q-73 0-126 32t-81 89-29 134q0 58 16 104t47 78 74 50 99 17q36 0 75-11t71-38q10-7 13-17t0-19-10-16-17-8-22 7q-26 20-53 28t-52 8q-39 0-68-12t-49-36-30-57-11-79q0-87 41-137t117-51q25 0 51 8t54 28q11 8 21 7t17-7 9-17 0-19-13-17q-32-26-70-37T282-9Z"/><glyph unicode="d" horiz-adv-x="583" d="M261-9q-65 0-113 31t-75 87-27 134q0 78 26 134t75 87 114 31q66 0 113-33t63-89h-11v298q0 20 10 30t31 11q19 0 29-10t11-31V35q0-20-10-31T467-7q-19 0-29 11t-11 31v95l11-14q-16-57-63-91T261-9Zm17 65q45 0 79 22t52 64 19 101q0 91-40 139t-110 48q-46 0-79-21t-52-63-19-103q0-90 41-138t109-49Z"/><glyph unicode="e" horiz-adv-x="532" d="M295-9q-77 0-132 30t-86 87-31 134q0 76 30 132t82 89 122 32q49 0 88-16t66-48 42-75 15-99q0-16-9-23t-26-8H108v53h329l-16-13q0 54-16 91t-46 58-77 20q-51 0-86-23t-54-65-18-97v-6q0-92 44-140t127-48q34 0 67 9t66 30q14 9 25 9t19-7 9-16-1-21-18-19q-33-24-78-37T295-9Z"/><glyph unicode="f" horiz-adv-x="333" d="M142-7q-19 0-29 11t-11 31v388H38q-16 0-25 8T3 455q0 15 9 23t26 8h86l-22-21v38q0 95 46 145t137 58l29 3q14 1 22-5t11-15 1-18-9-17-17-8l-23-2q-61-5-88-37t-28-94v-42l-12 15h120q17 0 26-8t9-23q0-15-9-23t-26-9H183V35q0-42-41-42Z"/><glyph unicode="g" horiz-adv-x="586" d="M291-189q-53 0-103 12t-92 40q-12 7-15 17t-2 19 9 17 16 10 20-3q44-27 84-37t79-10q71 0 107 38t37 110v113h10q-15-58-63-92T264 11q-67 0-116 30t-75 86-27 127q0 54 15 98t43 76 69 49 91 18q66 0 114-33t62-91l-10-12v93q0 20 10 30t30 11q20 0 30-10t10-31V35q0-111-55-167t-164-57ZM279 77q47 0 81 21t52 62 19 94q0 81-41 128t-111 48q-46 0-80-21t-52-61-19-94q0-81 41-129t110-48Z"/><glyph unicode="h" horiz-adv-x="568" d="M116-7Q96-7 86 4T76 35v636q0 20 10 30t30 11q19 0 30-10t11-31V378h-13q21 58 68 87t110 30q58 0 96-21t58-63 19-108V35q0-20-10-31T455-7q-20 0-30 11t-11 31v263q0 68-26 99t-85 32q-67 0-106-41t-40-111V35q0-42-41-42Z"/><glyph unicode="i" horiz-adv-x="232" d="M116-5Q96-5 86 6T76 39v409q0 21 10 32t30 11q19 0 30-11t11-32V39q0-21-10-32T116-5Zm0 608q-25 0-39 13t-14 37q0 24 14 36t39 13q26 0 39-12t14-37q0-23-13-36t-40-14Z"/><glyph unicode="j" horiz-adv-x="236" d="M-17-191q-15-1-24 5t-13 15-3 19 9 17 19 7q55 3 81 29t27 84v467q0 20 10 30t31 11q19 0 29-10t11-31V-9q0-61-20-100t-60-59-97-23Zm136 794q-25 0-39 13t-14 37q0 24 14 36t39 13q26 0 40-12t14-37q0-23-14-36t-40-14Z"/><glyph unicode="k" horiz-adv-x="500" d="M116-7Q96-7 86 4T76 35v636q0 20 10 30t30 11q19 0 30-10t11-31V270h2l205 196q14 13 24 20t29 7q16 0 25-8t9-21-13-27L220 230v44L457 51q14-14 14-27t-9-22-25-9q-18 0-29 7t-27 23L159 228h-2V35q0-42-41-42Z"/><glyph unicode="l" horiz-adv-x="296" d="M224-9q-72 0-110 44T76 161v510q0 20 10 30t30 11q19 0 30-10t11-31V167q0-54 21-80t64-27q9 0 16 1t14 1q11 1 15-5t5-24q0-18-8-27T258-6q-8-1-17-2t-17-1Z"/><glyph unicode="m" horiz-adv-x="856" d="M118-7Q98-7 88 4T78 35v417q0 20 10 30t29 11q19 0 29-10t11-31v-88l-11 14q19 56 61 86t102 31q62 0 100-29t52-92h-15q18 56 64 88t109 33q55 0 90-21t54-63 18-108V35q0-20-10-31T740-7q-19 0-29 11t-11 31v264q0 67-23 98t-78 32q-60 0-94-41t-35-113V35q0-20-10-31T429-7q-19 0-29 11t-11 31v264q0 67-23 98t-78 32q-60 0-94-41t-35-113V35q0-42-41-42Z"/><glyph unicode="n" horiz-adv-x="568" d="M116-7Q96-7 86 4T76 35v417q0 20 10 30t29 11q19 0 29-10t11-31v-86l-11 12q21 58 68 87t110 30q58 0 96-21t58-63 19-108V35q0-20-10-31T455-7q-20 0-30 11t-11 31v263q0 68-26 99t-85 32q-67 0-106-41t-40-111V35q0-42-41-42Z"/><glyph unicode="o" horiz-adv-x="556" d="M278-9q-71 0-123 31t-80 87-29 134q0 58 16 104t47 80 73 50 96 18q71 0 123-31t80-87 29-134q0-58-16-104t-47-79-73-51-96-18Zm0 65q45 0 79 22t52 64 19 101q0 91-40 139t-110 48q-46 0-79-21t-52-63-19-103q0-90 41-138t109-49Z"/><glyph unicode="p" horiz-adv-x="583" d="M116-187q-20 0-30 10t-10 31v598q0 20 10 30t29 11q20 0 30-10t11-31v-95l-11 14q16 57 63 90t114 34q65 0 113-30t75-87 27-135q0-77-26-133t-75-88T322-9q-66 0-113 33t-64 90h12v-260q0-20-11-30t-30-11ZM305 56q46 0 79 22t52 64 19 101q0 91-40 139t-110 48q-45 0-79-21t-52-63-19-103q0-90 41-138t109-49Z"/><glyph unicode="q" horiz-adv-x="583" d="M467-187q-20 0-30 10t-11 31v260h11q-16-56-63-89T261-9q-65 0-113 31t-75 87-27 134q0 78 26 134t75 87 114 31q66 0 113-33t64-91l-11-14v95q0 20 10 30t30 11q20 0 30-10t10-31v-598q0-20-10-30t-30-11ZM278 56q45 0 79 22t52 64 19 101q0 91-40 139t-110 48q-46 0-79-21t-52-63-19-103q0-90 41-138t109-49Z"/><glyph unicode="r" horiz-adv-x="358" d="M117-7Q97-7 87 4T76 35v417q0 20 10 30t29 11q19 0 29-10t11-31v-81h-10q16 59 61 91t111 34q15 1 24-6t10-26q1-17-8-27t-28-12l-16-2q-68-6-104-43t-37-103V35q0-20-10-31T117-7Z"/><glyph unicode="s" horiz-adv-x="481" d="M240-9q-45 0-90 11T65 40q-10 7-14 16t-3 19 8 17 16 8 22-4q39-24 75-33t73-10q57 0 86 21t29 57q0 28-19 44t-60 26l-91 20q-63 13-93 45t-31 83q0 45 23 77t67 51 100 18q44 0 83-11t72-37q10-7 13-16t2-19-10-16-17-8-21 6q-30 20-61 29t-61 10q-56 0-85-22t-29-58q0-28 18-46t56-26l91-19q65-14 97-44t33-83q0-66-53-105T240-9Z"/><glyph unicode="t" horiz-adv-x="350" d="M271-9q-57 0-95 20t-58 60-19 97v255H32q-17 0-26 8t-9 24q0 15 9 23t26 8h67v115q0 20 11 30t30 11q19 0 29-10t11-31V486h126q17 0 26-8t9-23q0-15-9-23t-26-9H180V176q0-57 24-86t78-30q19 0 32 4t23 4q9 1 15-6t6-24q0-12-4-22T338 2q-12-4-31-7t-36-4Z"/><glyph unicode="u" horiz-adv-x="561" d="M248-9q-59 0-97 21T93 77 73 184v268q0 21 10 31t30 10q20 0 30-10t11-31V185q0-64 26-95t84-32q62 0 101 42t39 110v242q0 21 10 31t31 10q19 0 29-10t11-31V35q0-42-39-42-19 0-29 11t-11 31v91l13-14q-20-59-65-90T248-9Z"/><glyph unicode="v" horiz-adv-x="515" d="M257-7q-17 0-30 9t-22 30L32 436q-7 15-5 28t12 21 28 8q16 0 25-7t16-25L272 60h-27l167 401q7 18 16 25t26 7q16 0 24-8t10-20-4-28L309 32q-7-20-20-29T257-7Z"/><glyph unicode="w" horiz-adv-x="841" d="M244-7q-17 0-30 9t-21 29L44 436q-6 17-4 30t13 20 25 7q15 0 24-7t16-26L258 60h-24l144 400q7 18 17 25t28 8q16 0 27-8t17-25L608 60h-23l142 402q7 18 17 24t24 7q16 0 24-8t10-21-5-28L648 31q-7-19-20-28T597-7q-17 0-30 9t-20 29L399 437h43L295 31q-7-19-20-28T244-7Z"/><glyph unicode="x" horiz-adv-x="525" d="M78-6Q65-6 55 2T45 23t12 29l175 220v-42L68 435q-13 16-13 29t11 21 23 8q15 0 25-5t20-18l143-181h-28l144 181q9 12 19 17t25 6q14 0 23-8t10-21-12-30L295 232v37L470 52q12-15 12-28T471 2t-24-8q-14 0-24 5t-21 18L248 211h29L123 17q-9-11-19-17T78-6Z"/><glyph unicode="y" horiz-adv-x="514" d="M184-187q-15 0-24 8t-10 21 4 28l69 155v-35L31 436q-6 15-4 28t12 21 28 8q16 0 25-7t16-25L272 59h-27l166 402q8 18 17 25t26 7q16 0 24-8t10-20-4-28L228-155q-8-18-17-25t-27-7Z"/><glyph unicode="z" horiz-adv-x="463" d="M85 0Q72 0 64 6T53 22t0 22 13 23l282 377v-21H81q-16 0-24 8t-9 24q0 15 8 23t25 8h307q15 0 24-6t13-15 1-21-12-23L127 40v23h281q33 0 33-31 0-15-8-23t-25-9H85Z"/><glyph unicode="{" horiz-adv-x="352" d="M247-180q-33 0-55 11t-34 35-12 56v227q0 42-16 61t-59 20q-13 0-21 10t-8 23q0 14 8 23t21 10q42 1 58 20t17 60v227q0 50 26 76t75 26h69q15 0 25-9t10-23q0-13-8-22t-23-10h-50q-21 0-32-11t-11-34V368q0-30-12-54t-32-39-47-14v4q27 0 47-14t32-38 12-55V-71q0-23 11-34t32-11h50q14 0 22-9t9-23q0-13-10-22t-25-10h-69Z"/><glyph unicode="|" horiz-adv-x="265" d="M132-187q-19 0-29 10t-11 31v817q0 21 10 31t30 10q20 0 30-10t11-31v-817q0-41-41-41Z"/><glyph unicode="}" horiz-adv-x="352" d="M36-180q-15 0-25 9T1-148q0 13 8 22t23 10h50q22 0 32 11t11 34v229q0 30 12 54t32 39 47 14v-4q-26 0-46 14t-33 38-12 55v228q0 23-10 34t-33 11H32q-14 0-22 9t-9 23q0 14 10 23t25 9h70q32 0 54-11t34-35 12-56V376q0-41 16-60t59-20q14-1 21-10t8-23q0-13-7-23t-22-10q-42-1-58-20t-17-61V-78q0-50-25-76t-75-26H36Z"/><glyph unicode="~" horiz-adv-x="600" d="M415 217q-26 0-55 10t-71 32q-40 23-61 30t-38 8q-22 0-40-9t-35-36q-7-13-18-15t-21 4-12 17 3 23q20 39 51 58t68 19q25 0 53-9t69-32q37-19 60-29t42-11q22 0 40 10t35 36q8 12 19 14t20-3 13-17-3-24q-21-38-51-57t-68-19Z"/><glyph horiz-adv-x="258"/><glyph unicode="¡" horiz-adv-x="228" d="M115-187q-24 0-36 14t-12 39l20 412q1 16 8 23t20 8q12 0 19-7t8-24l19-412q1-24-11-38t-35-15Zm0 567q-25 0-40 16t-15 39q0 25 15 40t40 15q25 0 39-15t15-40q0-23-14-39t-40-16Z"/><glyph unicode="¢" horiz-adv-x="600" d="M318-122q-14 0-24 10t-10 25V16l14-22q-61 7-108 40t-73 87-26 123q0 50 14 92t42 75 66 53 85 26l-14-26v114q0 15 10 25t24 10q15 0 24-10t10-25V467l-19 25q40 0 80-12t71-35q10-7 13-17t1-20-10-16-17-7-24 7q-24 17-53 25t-59 9q-37 0-67-13t-51-37-32-57-11-75q0-83 43-133t117-50q30 0 58 8t56 26q14 8 24 8t17-8 9-17-2-20-14-17q-29-22-70-35T331-7l21 20V-87q0-15-9-25t-25-10Z"/><glyph unicode="£" horiz-adv-x="600" d="M76 0Q62 0 52 10T41 36q0 15 10 24t25 10h85l-15-15v285l15-17H73q-13 0-22 9t-10 21q0 14 9 22t23 9h88l-15-16v142q0 64 24 109t72 70 120 25q51 0 102-17t85-47q12-9 15-20t-1-22-12-16-20-7-23 8q-32 28-68 39t-79 12q-66 0-99-33t-34-97V370l-8 14h162q14 0 23-8t10-23q0-12-9-21t-24-9H228V70h296q15 0 25-9t10-25q0-15-10-25T524 0H76Z"/><glyph unicode="¤" horiz-adv-x="600" d="M50-11q-9 9-9 22t9 22l59 60q-23 32-36 71t-14 81q0 43 13 82t37 70l-59 61q-9 9-9 21t9 22q9 9 21 9t23-11l58-59q30 25 68 39t80 14q42 0 79-13t68-38l55 57q10 11 23 11t23-9q10-9 10-22t-11-23l-57-58q24-32 37-71t14-82q0-43-13-82t-39-71l58-59q10-10 10-22t-10-22q-8-8-21-8T504-9l-57 58q-30-24-67-38T300-3q-42 0-80 14t-69 38L93-10q-9-9-21-9t-22 8Zm250 78q46 0 84 24t60 64 22 90q0 49-22 89t-60 65-84 24q-46 0-84-24t-61-64-23-90q0-49 22-89t61-65 85-24Z"/><glyph unicode="¥" horiz-adv-x="600" d="M300-7q-20 0-30 11t-11 33v138H99q-16 0-25 8t-9 22q0 14 9 22t25 8h160v93H99q-16 0-25 8t-9 22q0 14 9 22t25 8h134v-14L30 656q-9 13-8 26t11 21 25 9q14 0 23-6t19-20l211-296h-21l210 296q9 14 19 20t24 6q16 0 25-8t11-22-10-27L368 374v14h133q16 0 25-8t9-22q0-14-9-22t-25-8H341v-93h160q16 0 25-8t9-22q0-14-9-22t-25-8H341V37q0-44-41-44Z"/><glyph unicode="¦" horiz-adv-x="265" d="M132 365q-19 0-29 10t-11 31v265q0 21 10 31t30 10q20 0 30-10t11-31V406q0-41-41-41Zm0-552q-19 0-29 10t-11 31v265q0 20 10 30t30 11q20 0 30-10t11-31v-265q0-41-41-41Z"/><glyph unicode="§" horiz-adv-x="545" d="M248-189q-54 0-100 12t-80 37q-10 6-13 15t-1 20 9 17 16 8 22-5q30-20 69-30t79-11q40 0 70 12t47 38 17 61q0 38-19 65t-71 52l-110 51q-53 26-84 51t-44 56-13 67q0 41 21 79t54 63l-7-24q-11 14-19 35t-9 54q0 57 27 96t76 61 108 22q51 0 96-12t79-37q10-6 13-16t2-20-10-17-16-8-22 6q-29 20-67 31t-77 11q-37 0-66-13t-46-38-17-61q0-37 19-64t71-52l110-52q54-25 84-51t44-55 13-67q0-42-20-80t-55-62l7 23q11-13 19-35t9-54q0-55-28-95t-76-62-111-22ZM116 338q0-36 23-64t83-58l94-44q37-17 61-36t38-37l-25-1q20 17 29 40t10 49q0 36-22 64t-84 57l-94 45q-36 17-60 35t-38 37l24 2q-19-17-29-40t-10-49Z"/><glyph unicode="¨" horiz-adv-x="467" d="M322 606q-23 0-35 12t-13 34q0 22 12 34t36 13q22 0 34-12t12-35q0-22-12-34t-34-12Zm-175 0q-22 0-34 12t-13 34q0 22 12 34t35 13q23 0 35-12t12-35q0-22-12-34t-35-12Z"/><glyph unicode="©" horiz-adv-x="815" d="M408-9q-76 0-142 27T151 95 74 211 46 353q0 77 27 142t77 115 115 76 143 28q77 0 142-27t115-77 76-114 28-143q0-76-27-142T665 96 551 19 408-9Zm0 44q67 0 124 24t100 67 67 101 24 126q0 68-24 125t-66 101-100 67-125 24q-68 0-125-24t-100-67-67-100-24-126q0-68 24-125t66-101 100-68 126-24Zm13 102q-97 0-152 60t-56 159q0 98 55 155t153 57q34 0 68-11t61-31q9-6 12-15t1-17-8-15-15-7-20 6q-24 16-48 23t-47 7q-66 0-103-40t-37-113q0-73 37-115t103-43q23 0 47 7t49 24q13 8 23 5t16-13 3-21-13-19q-27-21-61-32t-68-11Z"/><glyph unicode="ª" horiz-adv-x="327" d="M136 411q-47 0-78 26t-31 64q0 46 41 66t114 20h60v-36h-58q-51 0-75-12t-25-37q0-20 15-34t50-15q25 0 44 11t30 32 11 50v57q0 33-18 49t-54 17q-20 0-41-4t-43-14q-13-5-21-1t-11 12 1 17 15 14q25 12 51 16t51 5q43 0 70-12t42-38 14-63V439q0-28-27-28-13 0-20 8t-7 20v31h-2q-17-31-40-45t-58-14Z"/><glyph unicode="«" horiz-adv-x="441" d="M187 89q-11-5-22-2t-18 15L65 238q-8 14-8 27t8 28l81 135q7 12 18 15t22-1q14-6 18-19t-3-28l-65-130 65-129q7-15 4-28t-18-19Zm181 0q-11-5-22-2t-18 15l-82 136q-8 14-8 27t8 28l81 135q7 12 18 15t22-1q14-6 18-19t-3-28l-65-130 65-129q7-15 4-28t-18-19Z"/><glyph unicode="¬" horiz-adv-x="600" d="M512 142q-16 0-24 9t-8 24v183H81q-15 0-23 8t-9 23q0 15 8 23t24 8h430q16 0 24-8t9-25V175q0-33-32-33Z"/><glyph unicode="­" horiz-adv-x="424" d="M100 233q-15 0-25 9t-10 24q0 15 10 24t25 10h225q14 0 24-9t10-25q0-14-10-23t-24-10H100Z"/><glyph unicode="®" horiz-adv-x="815" d="M408-9q-76 0-142 27T151 95 74 211 46 353q0 77 27 142t77 115 115 76 143 28q77 0 142-27t115-77 76-114 28-143q0-76-27-142T665 96 551 19 408-9Zm0 44q67 0 124 24t100 67 67 101 24 126q0 68-24 125t-66 101-100 67-125 24q-68 0-125-24t-100-67-67-100-24-126q0-68 24-125t66-101 100-68 126-24ZM297 136q-33 0-33 35v353q0 19 10 29t30 11h131q68 0 104-32t37-90q0-58-36-88t-103-31l12 10q30 0 50-12t33-49l35-92q8-21-2-32t-28-12q-12 0-20 7t-11 19l-42 110q-9 25-27 33t-45 9h-75l13 10V171q0-35-33-35Zm33 232h97q42 0 63 17t21 54q0 37-20 54t-64 17h-97V368Z"/><glyph unicode="¯" horiz-adv-x="501" d="M129 625q-29 0-29 27 0 14 7 21t22 7h242q30 0 30-28 0-12-7-19t-23-8H129Z"/><glyph unicode="°" horiz-adv-x="371" d="M186 418q-43 0-76 20t-53 53-20 75q0 42 19 75t53 53 77 20q42 0 75-19t52-52 20-77q0-42-19-75t-53-53-75-20Zm0 55q40 0 64 26t25 67q0 41-24 67t-65 26q-39 0-64-26t-26-67q0-40 25-66t65-27Z"/><glyph unicode="±" horiz-adv-x="600" d="M300 120q-16 0-24 9t-8 25v143H82q-16 0-24 8t-9 24q0 14 8 22t25 8h186v144q0 16 8 24t24 9q16 0 24-8t8-25V359h187q15 0 23-8t9-22q0-16-8-24t-24-8H332V154q0-16-8-25t-24-9ZM81 0Q66 0 58 8t-9 23q0 15 8 23t24 8h438q15 0 23-8t9-23q0-15-8-23t-24-8H81Z"/><glyph unicode="²" horiz-adv-x="380" d="M85 282q-15 0-24 8t-9 21q0 12 5 20t13 18l119 129q29 31 41 56t13 51q0 31-18 48t-52 17q-22 0-45-7t-43-23q-13-8-24-6t-17 12-4 22 15 21q26 19 61 29t69 11q40 0 69-14t46-41 16-62q0-34-16-66t-51-69L132 332v9h178q31 0 31-29 0-14-8-22t-23-8H85Z"/><glyph unicode="³" horiz-adv-x="380" d="M187 278q-39 0-73 10t-60 30q-13 9-15 20t2 22 17 12 26-6q22-15 46-22t51-7q35 0 58 16t24 52q0 33-23 47t-63 14h-50q-16 0-24 8t-8 22q0 14 8 21t24 8h39q39 0 62 16t23 49q0 28-19 44t-56 16q-21 0-44-7t-44-21q-15-9-26-7t-18 12-4 21 15 21q27 19 61 29t70 11q61 0 97-30t36-79q0-42-24-69t-59-36v8q43-6 69-33t26-72q0-38-19-65t-51-41-74-14Z"/><glyph unicode="´" horiz-adv-x="356" d="M150 556q-7-10-17-11t-19 2-13 14 2 21l84 163q7 14 18 18t22 2 20-11 9-19-6-23L150 556Z"/><glyph unicode="µ" horiz-adv-x="600" d="M135-187q-20 0-30 10t-10 31v598q0 21 10 31t30 10q19 0 30-10t11-31V186q0-65 26-95t83-31q63 0 102 41t39 110v241q0 21 10 31t30 10q20 0 30-10t11-31V35q0-42-39-42-19 0-29 10t-11 27v82h8q-16-59-57-90T284-9q-44 0-77 16t-51 60h13l5-212q1-20-9-31t-30-11Z"/><glyph unicode="¶" horiz-adv-x="588" d="M276-187q-16 0-24 9t-8 24v464q-60 0-105 25t-69 70-25 103q0 57 24 102t70 70 106 25h214q20 0 31-10t11-31v-818q0-33-32-33-16 0-24 9t-9 24v797H309v-797q0-33-33-33Z"/><glyph unicode="·" horiz-adv-x="228" d="M115 211q-25 0-40 15t-15 40q0 24 15 39t40 16q25 0 39-15t15-40q0-24-14-39t-40-16Z"/><glyph unicode="¸" horiz-adv-x="402" d="M190-192q-18 0-37 2t-36 10q-11 4-15 13t-1 18 11 13 20 0q12-5 25-7t31-2q26 0 42 9t16 28q0 13-9 20t-29 8q-8 0-15-1t-18-3q-9-3-14-3t-10 3q-4 4-4 9t0 16l12 79h51l-13-75-24 6q12 3 23 5t22 2q36 0 60-18t24-50q0-37-31-59t-81-23Z"/><glyph unicode="¹" horiz-adv-x="380" d="M114 282q-31 0-31 30 0 13 7 21t24 8h67v304h31l-83-52q-16-9-27-6t-18 14-3 22 17 21l81 50q10 7 19 10t20 4q10 0 16-4t11-11 4-18V341h52q31 0 31-29 0-14-8-22t-23-8H114Z"/><glyph unicode="º" horiz-adv-x="339" d="M170 411q-43 0-76 19t-52 53-19 80q0 46 19 80t52 52 76 19q42 0 75-18t52-53 19-80q0-46-19-80t-52-53-75-19Zm0 46q40 0 64 27t24 79q0 51-24 78t-64 27q-41 0-65-26t-24-79q0-52 24-79t65-27Z"/><glyph unicode="»" horiz-adv-x="441" d="M73 89q-14 5-17 18t3 29l65 129-65 130q-6 15-2 28t17 19q12 5 23 2t18-16l80-135q9-14 9-27t-9-28l-82-136q-6-11-17-14t-23 1Zm181 0q-14 5-17 18t3 29l65 129-65 130q-6 15-2 28t17 19q12 5 23 2t18-16l80-135q9-14 9-27t-9-28l-82-136q-6-11-17-14t-23 1Z"/><glyph unicode="¼" horiz-adv-x="893" d="M114 282q-31 0-31 30 0 13 7 21t24 8h67v304h31l-83-52q-16-9-27-6t-18 14-3 22 17 21l81 50q10 7 19 10t20 4q10 0 16-4t11-11 4-18V341h52q31 0 31-29 0-14-8-22t-23-8H114ZM304 1q-7-12-16-16t-19-2-16 10-8 17 5 23l388 671q7 12 17 16t19 2 16-10 8-17-6-23L304 1Zm471-4q-16 0-25 8t-9 24v54H580q-16 0-25 9t-9 22q0 10 4 19t13 21l170 248q5 8 15 16t26 8q17 0 25-9t9-27V142h36q13 0 21-7t8-22q0-16-8-23t-21-7h-36V29q0-15-8-23t-25-9Zm-34 145v204h16L605 125v17h136Z"/><glyph unicode="½" horiz-adv-x="937" d="M114 282q-31 0-31 30 0 13 7 21t24 8h67v304h31l-83-52q-16-9-27-6t-18 14-3 22 17 21l81 50q10 7 19 10t20 4q10 0 16-4t11-11 4-18V341h52q31 0 31-29 0-14-8-22t-23-8H114ZM304 1q-7-12-16-16t-19-2-16 10-8 17 5 23l388 671q7 12 17 16t19 2 16-10 8-17-6-23L304 1Zm338-1q-15 0-24 8t-9 21q0 12 5 20t13 18l119 129q29 31 41 56t13 51q0 31-18 48t-52 17q-22 0-45-7t-43-23q-13-8-24-6t-17 12-4 22 15 21q26 19 61 29t69 11q40 0 69-14t46-41 16-62q0-34-16-66t-51-69L689 50v9h178q31 0 31-29 0-14-8-22t-23-8H642Z"/><glyph unicode="¾" horiz-adv-x="893" d="M187 278q-39 0-73 10t-60 30q-13 9-15 20t2 22 17 12 26-6q22-15 46-22t51-7q35 0 58 16t24 52q0 33-23 47t-63 14h-50q-16 0-24 8t-8 22q0 14 8 21t24 8h39q39 0 62 16t23 49q0 28-19 44t-56 16q-21 0-44-7t-44-21q-15-9-26-7t-18 12-4 21 15 21q27 19 61 29t70 11q61 0 97-30t36-79q0-42-24-69t-59-36v8q43-6 69-33t26-72q0-38-19-65t-51-41-74-14ZM304 1q-7-12-16-16t-19-2-16 10-8 17 5 23l388 671q7 12 17 16t19 2 16-10 8-17-6-23L304 1Zm471-4q-16 0-25 8t-9 24v54H580q-16 0-25 9t-9 22q0 10 4 19t13 21l170 248q5 8 15 16t26 8q17 0 25-9t9-27V142h36q13 0 21-7t8-22q0-16-8-23t-21-7h-36V29q0-15-8-23t-25-9Zm-34 145v204h16L605 125v17h136Z"/><glyph unicode="¿" horiz-adv-x="443" d="M216-189q-57 0-100 18t-67 53-25 78q0 43 19 81t73 88q32 30 50 54t28 48 13 50q1 12 8 19t19 7q13 0 20-8t7-23q0-31-7-59t-26-57-52-63q-40-40-54-68t-15-58q0-40 30-63t83-24q46 0 86 12t76 40q15 10 27 10t21-7 11-19-3-23-20-22q-39-28-90-46t-112-18Zm19 569q-24 0-39 15t-16 40q0 24 15 39t40 16q26 0 40-15t15-40q0-24-14-39t-41-16Z"/><glyph unicode="À" horiz-adv-x="729" d="M72-7Q56-7 47 0T36 20t5 29l275 626q9 20 21 28t28 9q15 0 27-8t21-29L689 49q8-16 7-29T685 0t-25-7q-18 0-29 9t-18 28l-74 171 40-21H149l41 21-73-171q-9-19-19-28T72-7Zm292 616L203 230l-24 19h370l-22-19-161 379h-2Zm-33 160L227 892q-9 11-9 21t8 19 17 11 22 1 20-16l89-129q7-11 5-20t-11-14-18-6-19 10Z"/><glyph unicode="Á" horiz-adv-x="729" d="M72-7Q56-7 47 0T36 20t5 29l275 626q9 20 21 28t28 9q15 0 27-8t21-29L689 49q8-16 7-29T685 0t-25-7q-18 0-29 9t-18 28l-74 171 40-21H149l41 21-73-171q-9-19-19-28T72-7Zm292 616L203 230l-24 19h370l-22-19-161 379h-2Zm37 160q-8-9-18-9t-19 4-10 15 4 20l89 129q9 13 20 16t22 0 17-12 7-18-8-22L401 769Z"/><glyph unicode="Â" horiz-adv-x="729" d="M72-7Q56-7 47 0T36 20t5 29l275 626q9 20 21 28t28 9q15 0 27-8t21-29L689 49q8-16 7-29T685 0t-25-7q-18 0-29 9t-18 28l-74 171 40-21H149l41 21-73-171q-9-19-19-28T72-7Zm292 616L203 230l-24 19h370l-22-19-161 379h-2Zm-94 159q-9-9-19-10t-19 4-10 14 5 19l88 123q10 15 23 21t28 7q16 0 28-6t24-22l87-123q8-10 6-19t-10-14-19-4-19 10l-97 116-96-116Z"/><glyph unicode="Ã" horiz-adv-x="729" d="M72-7Q56-7 47 0T36 20t5 29l275 626q9 20 21 28t28 9q15 0 27-8t21-29L689 49q8-16 7-29T685 0t-25-7q-18 0-29 9t-18 28l-74 171 40-21H149l41 21-73-171q-9-19-19-28T72-7Zm292 616L203 230l-24 19h370l-22-19-161 379h-2ZM182 780q-11 0-17 7t-5 21q10 53 41 82t76 29q27 0 51-11t46-27 43-26 41-12q27 0 44 17t22 45q3 11 9 16t17 4q11 0 18-7t4-21q-10-53-40-82t-76-29q-27 0-51 11t-47 26-43 27-41 12q-26 0-43-17t-23-45q-3-10-9-15t-17-5Z"/><glyph unicode="Ä" horiz-adv-x="729" d="M72-7Q56-7 47 0T36 20t5 29l275 626q9 20 21 28t28 9q15 0 27-8t21-29L689 49q8-16 7-29T685 0t-25-7q-18 0-29 9t-18 28l-74 171 40-21H149l41 21-73-171q-9-19-19-28T72-7Zm292 616L203 230l-24 19h370l-22-19-161 379h-2Zm90 193q-23 0-35 12t-13 35q0 22 12 34t36 12q22 0 34-12t12-34q0-23-12-35t-34-12Zm-175 0q-22 0-34 12t-13 35q0 22 12 34t35 12q23 0 35-12t12-34q0-23-12-35t-35-12Z"/><glyph unicode="Å" horiz-adv-x="729" d="M72-7Q56-7 47 0T36 20t5 29l275 626q9 20 21 28t28 9q15 0 27-8t21-29L689 49q8-16 7-29T685 0t-25-7q-18 0-29 9t-18 28l-74 171 40-21H149l41 21-73-171q-9-19-19-28T72-7Zm292 616L203 230l-24 19h370l-22-19-161 379h-2Zm2 149q-33 0-60 15t-43 42-16 59q0 33 16 58t43 41 60 16q34 0 60-15t43-41 16-59q0-32-16-58t-42-42-61-16Zm0 43q32 0 52 21t20 52q0 30-20 51t-52 21q-31 0-51-21t-21-51q0-31 20-52t52-21Z"/><glyph unicode="Æ" horiz-adv-x="981" d="M42-7Q24-7 14 0T4 20t8 25l385 635q8 13 19 19t26 6h458q18 0 27-9t10-25q0-17-9-26t-28-9H480l17 29 63-295-29 22h349q18 0 27-8t10-26q0-17-9-26t-28-9H546l20 22 64-304-32 28h302q18 0 27-9t10-25q0-17-9-26t-28-9H598q-33 0-41 33l-36 171 30-24H161l32 22L85 20Q77 7 67 0T42-7Zm391 615L208 229l-9 20h331l-14-22-81 381h-2Z"/><glyph unicode="Ç" horiz-adv-x="673" d="M392-9Q288-9 214 35T101 160 61 353q0 84 22 150t65 113 105 72 139 26q62 0 118-17t97-52q13-10 17-22t2-24-12-19-21-8-27 10q-36 29-79 43t-93 14q-79 0-134-33t-83-98-28-155q0-91 28-155t83-98 134-34q49 0 93 14t81 44q15 10 27 10t20-8 11-18 1-23-16-21q-42-36-98-54T392-9Zm-4-183q-18 0-37 2t-36 10q-11 4-15 13t-1 18 11 13 20 0q12-5 25-7t31-2q26 0 42 9t16 28q0 13-9 20t-29 8q-8 0-15-1t-18-3q-9-3-14-3t-10 3q-4 4-4 9t0 16l12 79h51l-13-75-24 6q12 3 23 5t22 2q36 0 60-18t24-50q0-37-31-59t-81-23Z"/><glyph unicode="È" horiz-adv-x="583" d="M132 0q-22 0-33 11T87 45v615q0 22 11 33t34 12h372q17 0 26-9t9-25q0-17-9-26t-26-9H167V392h316q17 0 26-8t9-26q0-17-9-26t-26-9H167V69h337q17 0 26-9t9-25q0-17-9-26t-26-9H132Zm157 769L185 892q-9 11-9 21t8 19 17 11 22 1 20-16l89-129q7-11 5-20t-11-14-18-6-19 10Z"/><glyph unicode="É" horiz-adv-x="583" d="M132 0q-22 0-33 11T87 45v615q0 22 11 33t34 12h372q17 0 26-9t9-25q0-17-9-26t-26-9H167V392h316q17 0 26-8t9-26q0-17-9-26t-26-9H167V69h337q17 0 26-9t9-25q0-17-9-26t-26-9H132Zm227 769q-8-9-18-9t-19 4-10 15 4 20l89 129q9 13 20 16t22 0 17-12 7-18-8-22L359 769Z"/><glyph unicode="Ê" horiz-adv-x="583" d="M132 0q-22 0-33 11T87 45v615q0 22 11 33t34 12h372q17 0 26-9t9-25q0-17-9-26t-26-9H167V392h316q17 0 26-8t9-26q0-17-9-26t-26-9H167V69h337q17 0 26-9t9-25q0-17-9-26t-26-9H132Zm96 768q-9-9-19-10t-19 4-10 14 5 19l88 123q10 15 23 21t28 7q16 0 28-6t24-22l87-123q8-10 6-19t-10-14-19-4-19 10l-97 116-96-116Z"/><glyph unicode="Ë" horiz-adv-x="583" d="M132 0q-22 0-33 11T87 45v615q0 22 11 33t34 12h372q17 0 26-9t9-25q0-17-9-26t-26-9H167V392h316q17 0 26-8t9-26q0-17-9-26t-26-9H167V69h337q17 0 26-9t9-25q0-17-9-26t-26-9H132Zm280 802q-23 0-35 12t-13 35q0 22 12 34t36 12q22 0 34-12t12-34q0-23-12-35t-34-12Zm-175 0q-22 0-34 12t-13 35q0 22 12 34t35 12q23 0 35-12t12-34q0-23-12-35t-35-12Z"/><glyph unicode="Ì" horiz-adv-x="257" d="M128-7Q108-7 98 4T87 36v633q0 21 10 32t31 11q20 0 30-11t11-32V36q0-20-10-31T128-7ZM93 769-11 892q-9 11-9 21t8 19 17 11 22 1 20-16l89-129q7-11 5-20t-11-14-18-6-19 10Z"/><glyph unicode="Í" horiz-adv-x="257" d="M128-7Q108-7 98 4T87 36v633q0 21 10 32t31 11q20 0 30-11t11-32V36q0-20-10-31T128-7Zm35 776q-8-9-18-9t-19 4-10 15 4 20l89 129q9 13 20 16t22 0 17-12 7-18-8-22L163 769Z"/><glyph unicode="Î" horiz-adv-x="257" d="M128-7Q108-7 98 4T87 36v633q0 21 10 32t31 11q20 0 30-11t11-32V36q0-20-10-31T128-7ZM32 768q-9-9-19-10t-19 4-10 14 5 19l88 123q10 15 23 21t28 7q16 0 28-6t24-22l87-123q8-10 6-19t-10-14-19-4-19 10l-97 116-96-116Z"/><glyph unicode="Ï" horiz-adv-x="257" d="M128-7Q108-7 98 4T87 36v633q0 21 10 32t31 11q20 0 30-11t11-32V36q0-20-10-31T128-7Zm88 809q-23 0-35 12t-13 35q0 22 12 34t36 12q22 0 34-12t12-34q0-23-12-35t-34-12Zm-175 0q-22 0-34 12t-13 35q0 22 12 34t35 12q23 0 35-12t12-34q0-23-12-35t-35-12Z"/><glyph unicode="Ð" horiz-adv-x="742" d="M132 0q-22 0-33 11T87 45v615q0 22 11 33t34 12h193q171 0 264-90t93-262q0-86-23-151T589 91 477 23 325 0H132Zm37 70h150q70 0 121 18t86 53 52 88 17 124q0 141-69 211t-207 71H169V70ZM25 326q-16 0-24 8t-9 24q0 15 8 23t25 9h315q16 0 24-8t9-24q0-15-8-23t-25-9H25Z"/><glyph unicode="Ñ" horiz-adv-x="740" d="M126-7Q107-7 97 3T87 34v636q0 20 10 31t26 11q16 0 23-5t18-20l436-581h-24v566q0 19 10 29t29 11q18 0 27-10t10-30V33q0-19-8-29T619-7q-15 0-24 6t-19 19L141 599h23V34q0-20-10-30T126-7Zm60 787q-11 0-17 7t-5 21q10 53 41 82t76 29q27 0 51-11t46-27 43-26 41-12q27 0 44 17t22 45q3 11 9 16t17 4q11 0 18-7t4-21q-10-53-40-82t-76-29q-27 0-51 11t-47 26-43 27-41 12q-26 0-43-17t-23-45q-3-10-9-15t-17-5Z"/><glyph unicode="Ò" horiz-adv-x="767" d="M383-9q-98 0-170 44T101 161 61 353q0 84 22 150t65 113 101 72 134 26q100 0 172-44t112-124 40-192q0-84-23-151T619 89 518 17 383-9Zm0 73q76 0 128 34t81 99 28 156q0 137-61 212t-176 76q-74 0-126-34t-81-98-28-156q0-136 62-212t173-77Zm-35 705L244 892q-9 11-9 21t8 19 17 11 22 1 20-16l89-129q7-11 5-20t-11-14-18-6-19 10Z"/><glyph unicode="Ó" horiz-adv-x="767" d="M383-9q-98 0-170 44T101 161 61 353q0 84 22 150t65 113 101 72 134 26q100 0 172-44t112-124 40-192q0-84-23-151T619 89 518 17 383-9Zm0 73q76 0 128 34t81 99 28 156q0 137-61 212t-176 76q-74 0-126-34t-81-98-28-156q0-136 62-212t173-77Zm35 705q-8-9-18-9t-19 4-10 15 4 20l89 129q9 13 20 16t22 0 17-12 7-18-8-22L418 769Z"/><glyph unicode="Ô" horiz-adv-x="767" d="M383-9q-98 0-170 44T101 161 61 353q0 84 22 150t65 113 101 72 134 26q100 0 172-44t112-124 40-192q0-84-23-151T619 89 518 17 383-9Zm0 73q76 0 128 34t81 99 28 156q0 137-61 212t-176 76q-74 0-126-34t-81-98-28-156q0-136 62-212t173-77Zm-96 704q-9-9-19-10t-19 4-10 14 5 19l88 123q10 15 23 21t28 7q16 0 28-6t24-22l87-123q8-10 6-19t-10-14-19-4-19 10l-97 116-96-116Z"/><glyph unicode="Õ" horiz-adv-x="767" d="M383-9q-98 0-170 44T101 161 61 353q0 84 22 150t65 113 101 72 134 26q100 0 172-44t112-124 40-192q0-84-23-151T619 89 518 17 383-9Zm0 73q76 0 128 34t81 99 28 156q0 137-61 212t-176 76q-74 0-126-34t-81-98-28-156q0-136 62-212t173-77ZM199 780q-11 0-17 7t-5 21q10 53 41 82t76 29q27 0 51-11t46-27 43-26 41-12q27 0 44 17t22 45q3 11 9 16t17 4q11 0 18-7t4-21q-10-53-40-82t-76-29q-27 0-51 11t-47 26-43 27-41 12q-26 0-43-17t-23-45q-3-10-9-15t-17-5Z"/><glyph unicode="Ö" horiz-adv-x="767" d="M383-9q-98 0-170 44T101 161 61 353q0 84 22 150t65 113 101 72 134 26q100 0 172-44t112-124 40-192q0-84-23-151T619 89 518 17 383-9Zm0 73q76 0 128 34t81 99 28 156q0 137-61 212t-176 76q-74 0-126-34t-81-98-28-156q0-136 62-212t173-77Zm88 738q-23 0-35 12t-13 35q0 22 12 34t36 12q22 0 34-12t12-34q0-23-12-35t-34-12Zm-175 0q-22 0-34 12t-13 35q0 22 12 34t35 12q23 0 35-12t12-34q0-23-12-35t-35-12Z"/><glyph unicode="×" horiz-adv-x="600" d="M129 70q-12-12-24-11t-21 9-9 21 10 24l171 171L82 458q-9 10-10 20t3 18 13 14 19 4 19-12l174-173 173 173q12 12 24 11t22-9 10-21-12-25L344 284l171-171q9-9 10-19t-3-18-13-13-18-4-20 11L300 241 129 70Z"/><glyph unicode="Ø" horiz-adv-x="767" d="M383-9q-98 0-170 44T101 161 61 353q0 84 22 150t65 113 101 72 134 26q100 0 172-44t112-124 40-192q0-84-23-151T619 89 518 17 383-9Zm0 73q76 0 128 34t81 99 28 156q0 137-61 212t-176 76q-74 0-126-34t-81-98-28-156q0-136 62-212t173-77ZM201-26q-7-12-16-15t-20-1-17 10-8 18 5 23l41 70 24 40 296 506 19 35 41 71q7 12 16 15t20 1 18-10 8-18-6-23l-41-70-24-40L262 80l-19-34-42-72Z"/><glyph unicode="Ù" horiz-adv-x="728" d="M365-9Q295-9 243 9t-89 55-54 91-18 124v391q0 21 10 31t31 11q20 0 30-10t11-32V283q0-110 51-164t150-55q99 0 149 54t50 165v387q0 21 11 31t31 11q19 0 29-10t11-32V279q0-93-31-158t-95-97T365-9Zm-35 778L226 892q-9 11-9 21t8 19 17 11 22 1 20-16l89-129q7-11 5-20t-11-14-18-6-19 10Z"/><glyph unicode="Ú" horiz-adv-x="728" d="M365-9Q295-9 243 9t-89 55-54 91-18 124v391q0 21 10 31t31 11q20 0 30-10t11-32V283q0-110 51-164t150-55q99 0 149 54t50 165v387q0 21 11 31t31 11q19 0 29-10t11-32V279q0-93-31-158t-95-97T365-9Zm35 778q-8-9-18-9t-19 4-10 15 4 20l89 129q9 13 20 16t22 0 17-12 7-18-8-22L400 769Z"/><glyph unicode="Û" horiz-adv-x="728" d="M365-9Q295-9 243 9t-89 55-54 91-18 124v391q0 21 10 31t31 11q20 0 30-10t11-32V283q0-110 51-164t150-55q99 0 149 54t50 165v387q0 21 11 31t31 11q19 0 29-10t11-32V279q0-93-31-158t-95-97T365-9Zm-96 777q-9-9-19-10t-19 4-10 14 5 19l88 123q10 15 23 21t28 7q16 0 28-6t24-22l87-123q8-10 6-19t-10-14-19-4-19 10l-97 116-96-116Z"/><glyph unicode="Ü" horiz-adv-x="728" d="M365-9Q295-9 243 9t-89 55-54 91-18 124v391q0 21 10 31t31 11q20 0 30-10t11-32V283q0-110 51-164t150-55q99 0 149 54t50 165v387q0 21 11 31t31 11q19 0 29-10t11-32V279q0-93-31-158t-95-97T365-9Zm88 811q-23 0-35 12t-13 35q0 22 12 34t36 12q22 0 34-12t12-34q0-23-12-35t-34-12Zm-175 0q-22 0-34 12t-13 35q0 22 12 34t35 12q23 0 35-12t12-34q0-23-12-35t-35-12Z"/><glyph unicode="Ý" horiz-adv-x="596" d="M298-7q-20 0-30 11t-11 33v328l18-57L24 654q-9 13-9 26t11 23 26 9q14 0 25-6t20-21l213-294h-21l213 294q11 15 21 21t24 6q16 0 25-8t9-22-9-29L322 308l17 57V37q0-44-41-44Zm35 776q-8-9-18-9t-19 4-10 15 4 20l89 129q9 13 20 16t22 0 17-12 7-18-8-22L333 769Z"/><glyph unicode="Þ" horiz-adv-x="634" d="M128-5Q108-5 98 6T87 38v629q0 21 11 32t31 11q20 0 30-10t10-29v-94h198q113 0 174-55t61-156q0-101-61-156t-174-56H169V38q0-20-10-31T128-5Zm41 227h188q81 0 122 36t41 108q0 71-41 107t-122 36H169V222Z"/><glyph unicode="ß" horiz-adv-x="615" d="M403-9q-43 0-87 12t-78 37q-11 7-15 17t-2 20 9 17 18 8 21-6q33-21 69-30t66-10q49 0 77 21t28 57q0 29-24 48t-83 38q-80 25-112 56t-32 80q0 21 7 40t24 41 47 47q31 27 43 48t13 47q0 33-23 52t-67 20q-70 0-107-42t-38-119V35q0-20-11-31T116-7Q96-7 86 4T76 35v445q0 112 59 173t166 61q53 0 91-15t58-45 20-68q0-38-17-68t-59-67q-23-20-36-34t-18-27-5-26q0-26 23-45t84-38q77-23 110-57t33-88q0-43-22-75t-64-51-96-19Z"/><glyph unicode="à" horiz-adv-x="530" d="M229-9q-50 0-89 19T77 64t-23 76q0 54 27 85t91 44 174 13h45v-53h-44q-81 0-127-7t-65-26-19-51q0-41 28-67t78-26q40 0 70 19t48 52 18 76v114q0 62-25 89t-82 28q-35 0-70-9t-74-29q-14-7-24-5t-16 11-7 18 4 21 18 16q44 22 87 32t82 10q63 0 104-20t61-62 20-107V35q0-20-9-31T419-7q-19 0-29 11t-10 31v78h9q-8-38-30-65T303 6 229-9Zm11 565L139 712q-8 12-6 23t10 19 19 10 22-1 18-18l84-163q6-12 3-21t-13-13-19-4-17 12Z"/><glyph unicode="á" horiz-adv-x="530" d="M229-9q-50 0-89 19T77 64t-23 76q0 54 27 85t91 44 174 13h45v-53h-44q-81 0-127-7t-65-26-19-51q0-41 28-67t78-26q40 0 70 19t48 52 18 76v114q0 62-25 89t-82 28q-35 0-70-9t-74-29q-14-7-24-5t-16 11-7 18 4 21 18 16q44 22 87 32t82 10q63 0 104-20t61-62 20-107V35q0-20-9-31T419-7q-19 0-29 11t-10 31v78h9q-8-38-30-65T303 6 229-9Zm76 565q-7-10-17-11t-19 2-13 14 2 21l84 163q7 14 18 18t22 2 20-11 9-19-6-23L305 556Z"/><glyph unicode="â" horiz-adv-x="530" d="M229-9q-50 0-89 19T77 64t-23 76q0 54 27 85t91 44 174 13h45v-53h-44q-81 0-127-7t-65-26-19-51q0-41 28-67t78-26q40 0 70 19t48 52 18 76v114q0 62-25 89t-82 28q-35 0-70-9t-74-29q-14-7-24-5t-16 11-7 18 4 21 18 16q44 22 87 32t82 10q63 0 104-20t61-62 20-107V35q0-20-9-31T419-7q-19 0-29 11t-10 31v78h9q-8-38-30-65T303 6 229-9Zm175 591q6-12 3-21t-12-14-18-3-16 12l-89 143-89-143q-6-10-15-11t-18 2-12 13 2 22l83 152q9 16 21 24t28 8q16 0 28-8t21-24l83-152Z"/><glyph unicode="ã" horiz-adv-x="530" d="M229-9q-50 0-89 19T77 64t-23 76q0 54 27 85t91 44 174 13h45v-53h-44q-81 0-127-7t-65-26-19-51q0-41 28-67t78-26q40 0 70 19t48 52 18 76v114q0 62-25 89t-82 28q-35 0-70-9t-74-29q-14-7-24-5t-16 11-7 18 4 21 18 16q44 22 87 32t82 10q63 0 104-20t61-62 20-107V35q0-20-9-31T419-7q-19 0-29 11t-10 31v78h9q-8-38-30-65T303 6 229-9ZM115 587q-10 0-16 7t-4 21q4 24 12 44t21 35 30 23 41 9q25 0 43-11t35-26 33-27 34-12q23 0 38 17t21 47q2 10 8 14t18 4q10 0 16-7t4-21q-5-31-18-56t-35-40-51-15q-25 0-43 11t-35 27-33 26-34 12q-23 0-38-17t-21-47q-2-9-8-14t-18-4Z"/><glyph unicode="ä" horiz-adv-x="530" d="M229-9q-50 0-89 19T77 64t-23 76q0 54 27 85t91 44 174 13h45v-53h-44q-81 0-127-7t-65-26-19-51q0-41 28-67t78-26q40 0 70 19t48 52 18 76v114q0 62-25 89t-82 28q-35 0-70-9t-74-29q-14-7-24-5t-16 11-7 18 4 21 18 16q44 22 87 32t82 10q63 0 104-20t61-62 20-107V35q0-20-9-31T419-7q-19 0-29 11t-10 31v78h9q-8-38-30-65T303 6 229-9Zm131 615q-23 0-35 12t-13 34q0 22 12 34t36 13q22 0 34-12t12-35q0-22-12-34t-34-12Zm-175 0q-22 0-34 12t-13 34q0 22 12 34t35 13q23 0 35-12t12-35q0-22-12-34t-35-12Z"/><glyph unicode="å" horiz-adv-x="530" d="M229-9q-50 0-89 19T77 64t-23 76q0 54 27 85t91 44 174 13h45v-53h-44q-81 0-127-7t-65-26-19-51q0-41 28-67t78-26q40 0 70 19t48 52 18 76v114q0 62-25 89t-82 28q-35 0-70-9t-74-29q-14-7-24-5t-16 11-7 18 4 21 18 16q44 22 87 32t82 10q63 0 104-20t61-62 20-107V35q0-20-9-31T419-7q-19 0-29 11t-10 31v78h9q-8-38-30-65T303 6 229-9Zm43 556q-33 0-60 15t-43 42-16 59q0 33 16 58t43 41 60 16q34 0 60-15t43-41 16-59q0-32-16-58t-42-42-61-16Zm0 43q32 0 52 21t20 52q0 30-20 51t-52 21q-31 0-51-21t-21-51q0-31 20-52t52-21Z"/><glyph unicode="æ" horiz-adv-x="861" d="M234-9q-52 0-92 19T78 64t-24 76q0 54 28 85t92 44 173 13h45v-54h-45q-81 0-127-7t-65-25-19-51q0-41 29-67t79-26q41 0 72 19t48 54 17 79v108q0 62-26 90t-83 28q-35 0-70-9t-75-29q-13-7-23-5t-17 11-6 18 4 21 18 16q43 22 86 32t84 10q73 0 115-30t56-91h-23q25 59 76 90t116 32q48 0 86-16t65-47 41-75 14-100v-3q0-14-8-20t-26-7H451v54h314l-15-13q0 52-16 89t-46 57-76 20q-46 0-80-22t-53-62-19-98v-7q0-92 42-141t124-49q31 0 65 9t67 30q13 9 24 9t19-7 10-16-2-21-17-19q-33-24-77-37T627-9q-85 0-143 39t-80 115h20q-14-71-64-112T234-9Z"/><glyph unicode="ç" horiz-adv-x="463" d="M282-9q-73 0-126 32t-81 89-29 134q0 58 16 104t47 78 74 50 99 17q36 0 75-11t71-38q10-7 13-17t0-19-10-16-17-8-22 7q-26 20-53 28t-52 8q-39 0-68-12t-49-36-30-57-11-79q0-87 41-137t117-51q25 0 51 8t54 28q11 8 21 7t17-7 9-17 0-19-13-17q-32-26-70-37T282-9Zm-1-183q-18 0-37 2t-36 10q-11 4-15 13t-1 18 11 13 20 0q12-5 25-7t31-2q26 0 42 9t16 28q0 13-9 20t-29 8q-8 0-15-1t-18-3q-9-3-14-3t-10 3q-4 4-4 9t0 16l12 79h51l-13-75-24 6q12 3 23 5t22 2q36 0 60-18t24-50q0-37-31-59t-81-23Z"/><glyph unicode="è" horiz-adv-x="532" d="M295-9q-77 0-132 30t-86 87-31 134q0 76 30 132t82 89 122 32q49 0 88-16t66-48 42-75 15-99q0-16-9-23t-26-8H108v53h329l-16-13q0 54-16 91t-46 58-77 20q-51 0-86-23t-54-65-18-97v-6q0-92 44-140t127-48q34 0 67 9t66 30q14 9 25 9t19-7 9-16-1-21-18-19q-33-24-78-37T295-9Zm-47 565L147 712q-8 12-6 23t10 19 19 10 22-1 18-18l84-163q6-12 3-21t-13-13-19-4-17 12Z"/><glyph unicode="é" horiz-adv-x="532" d="M295-9q-77 0-132 30t-86 87-31 134q0 76 30 132t82 89 122 32q49 0 88-16t66-48 42-75 15-99q0-16-9-23t-26-8H108v53h329l-16-13q0 54-16 91t-46 58-77 20q-51 0-86-23t-54-65-18-97v-6q0-92 44-140t127-48q34 0 67 9t66 30q14 9 25 9t19-7 9-16-1-21-18-19q-33-24-78-37T295-9Zm18 565q-7-10-17-11t-19 2-13 14 2 21l84 163q7 14 18 18t22 2 20-11 9-19-6-23L313 556Z"/><glyph unicode="ê" horiz-adv-x="532" d="M295-9q-77 0-132 30t-86 87-31 134q0 76 30 132t82 89 122 32q49 0 88-16t66-48 42-75 15-99q0-16-9-23t-26-8H108v53h329l-16-13q0 54-16 91t-46 58-77 20q-51 0-86-23t-54-65-18-97v-6q0-92 44-140t127-48q34 0 67 9t66 30q14 9 25 9t19-7 9-16-1-21-18-19q-33-24-78-37T295-9Zm117 591q6-12 3-21t-12-14-18-3-16 12l-89 143-89-143q-6-10-15-11t-18 2-12 13 2 22l83 152q9 16 21 24t28 8q16 0 28-8t21-24l83-152Z"/><glyph unicode="ë" horiz-adv-x="532" d="M295-9q-77 0-132 30t-86 87-31 134q0 76 30 132t82 89 122 32q49 0 88-16t66-48 42-75 15-99q0-16-9-23t-26-8H108v53h329l-16-13q0 54-16 91t-46 58-77 20q-51 0-86-23t-54-65-18-97v-6q0-92 44-140t127-48q34 0 67 9t66 30q14 9 25 9t19-7 9-16-1-21-18-19q-33-24-78-37T295-9Zm73 615q-23 0-35 12t-13 34q0 22 12 34t36 13q22 0 34-12t12-35q0-22-12-34t-34-12Zm-175 0q-22 0-34 12t-13 34q0 22 12 34t35 13q23 0 35-12t12-35q0-22-12-34t-35-12Z"/><glyph unicode="ì" horiz-adv-x="232" d="M116-5Q96-5 86 6T76 39v409q0 21 10 32t30 11q19 0 30-11t11-32V39q0-21-10-32T116-5ZM84 556-17 712q-8 12-6 23t10 19 19 10 22-1 18-18l84-163q6-12 3-21t-13-13-19-4-17 12Z"/><glyph unicode="í" horiz-adv-x="232" d="M116-5Q96-5 86 6T76 39v409q0 21 10 32t30 11q19 0 30-11t11-32V39q0-21-10-32T116-5Zm33 561q-7-10-17-11t-19 2-13 14 2 21l84 163q7 14 18 18t22 2 20-11 9-19-6-23L149 556Z"/><glyph unicode="î" horiz-adv-x="232" d="M116-5Q96-5 86 6T76 39v409q0 21 10 32t30 11q19 0 30-11t11-32V39q0-21-10-32T116-5Zm132 587q6-12 3-21t-12-14-18-3-16 12l-89 143-89-143q-6-10-15-11t-18 2-12 13 2 22l83 152q9 16 21 24t28 8q16 0 28-8t21-24l83-152Z"/><glyph unicode="ï" horiz-adv-x="232" d="M116-5Q96-5 86 6T76 39v409q0 21 10 32t30 11q19 0 30-11t11-32V39q0-21-10-32T116-5Zm88 611q-23 0-35 12t-13 34q0 22 12 34t36 13q22 0 34-12t12-35q0-22-12-34t-34-12Zm-175 0q-22 0-34 12t-13 34q0 22 12 34t35 13q23 0 35-12t12-35q0-22-12-34t-35-12Z"/><glyph unicode="ð" horiz-adv-x="560" d="M276-9q-69 0-121 29t-80 81-29 122q0 69 28 120t80 80 118 29q49 0 87-16t63-50 37-86h-23q1 99-39 173T288 593h22l-151-66q-16-6-27-2t-16 14-1 21 22 19l111 48 2-11q-20 10-41 18t-44 16q-18 5-24 16t-3 22 14 17 29 1q40-10 73-25t65-33l-23 1 124 54q15 6 26 2t17-14 1-21-20-18l-93-41 3 12q53-38 88-89t53-114 19-136q0-71-15-125t-46-92-75-57T276-9Zm1 66q47 0 81 20t51 57 18 89q0 76-39 120t-111 44q-45 0-79-20t-52-56-18-88q0-79 39-122t110-44Z"/><glyph unicode="ñ" horiz-adv-x="568" d="M116-7Q96-7 86 4T76 35v417q0 20 10 30t29 11q19 0 29-10t11-31v-86l-11 12q21 58 68 87t110 30q58 0 96-21t58-63 19-108V35q0-20-10-31T455-7q-20 0-30 11t-11 31v263q0 68-26 99t-85 32q-67 0-106-41t-40-111V35q0-42-41-42Zm12 594q-10 0-16 7t-4 21q4 24 12 44t21 35 30 23 41 9q25 0 43-11t35-26 33-27 34-12q23 0 38 17t21 47q2 10 8 14t18 4q10 0 16-7t4-21q-5-31-18-56t-35-40-51-15q-25 0-43 11t-35 27-33 26-34 12q-23 0-38-17t-21-47q-2-9-8-14t-18-4Z"/><glyph unicode="ò" horiz-adv-x="556" d="M278-9q-71 0-123 31t-80 87-29 134q0 58 16 104t47 80 73 50 96 18q71 0 123-31t80-87 29-134q0-58-16-104t-47-79-73-51-96-18Zm0 65q45 0 79 22t52 64 19 101q0 91-40 139t-110 48q-46 0-79-21t-52-63-19-103q0-90 41-138t109-49Zm-32 500L145 712q-8 12-6 23t10 19 19 10 22-1 18-18l84-163q6-12 3-21t-13-13-19-4-17 12Z"/><glyph unicode="ó" horiz-adv-x="556" d="M278-9q-71 0-123 31t-80 87-29 134q0 58 16 104t47 80 73 50 96 18q71 0 123-31t80-87 29-134q0-58-16-104t-47-79-73-51-96-18Zm0 65q45 0 79 22t52 64 19 101q0 91-40 139t-110 48q-46 0-79-21t-52-63-19-103q0-90 41-138t109-49Zm33 500q-7-10-17-11t-19 2-13 14 2 21l84 163q7 14 18 18t22 2 20-11 9-19-6-23L311 556Z"/><glyph unicode="ô" horiz-adv-x="556" d="M278-9q-71 0-123 31t-80 87-29 134q0 58 16 104t47 80 73 50 96 18q71 0 123-31t80-87 29-134q0-58-16-104t-47-79-73-51-96-18Zm0 65q45 0 79 22t52 64 19 101q0 91-40 139t-110 48q-46 0-79-21t-52-63-19-103q0-90 41-138t109-49Zm132 526q6-12 3-21t-12-14-18-3-16 12l-89 143-89-143q-6-10-15-11t-18 2-12 13 2 22l83 152q9 16 21 24t28 8q16 0 28-8t21-24l83-152Z"/><glyph unicode="õ" horiz-adv-x="556" d="M278-9q-71 0-123 31t-80 87-29 134q0 58 16 104t47 80 73 50 96 18q71 0 123-31t80-87 29-134q0-58-16-104t-47-79-73-51-96-18Zm0 65q45 0 79 22t52 64 19 101q0 91-40 139t-110 48q-46 0-79-21t-52-63-19-103q0-90 41-138t109-49ZM121 587q-10 0-16 7t-4 21q4 24 12 44t21 35 30 23 41 9q25 0 43-11t35-26 33-27 34-12q23 0 38 17t21 47q2 10 8 14t18 4q10 0 16-7t4-21q-5-31-18-56t-35-40-51-15q-25 0-43 11t-35 27-33 26-34 12q-23 0-38-17t-21-47q-2-9-8-14t-18-4Z"/><glyph unicode="ö" horiz-adv-x="556" d="M278-9q-71 0-123 31t-80 87-29 134q0 58 16 104t47 80 73 50 96 18q71 0 123-31t80-87 29-134q0-58-16-104t-47-79-73-51-96-18Zm0 65q45 0 79 22t52 64 19 101q0 91-40 139t-110 48q-46 0-79-21t-52-63-19-103q0-90 41-138t109-49Zm88 550q-23 0-35 12t-13 34q0 22 12 34t36 13q22 0 34-12t12-35q0-22-12-34t-34-12Zm-175 0q-22 0-34 12t-13 34q0 22 12 34t35 13q23 0 35-12t12-35q0-22-12-34t-35-12Z"/><glyph unicode="÷" horiz-adv-x="600" d="M81 256q-15 0-23 8t-9 23q0 15 8 23t24 8h438q15 0 23-8t9-23q0-15-8-23t-24-8H81ZM294 43q-21 0-32 12t-12 33q0 21 11 32t33 12q21 0 32-11t12-33q0-21-11-33t-33-12Zm0 398q-21 0-32 12t-12 33q0 21 11 32t33 12q21 0 32-11t12-33q0-21-11-33t-33-12Z"/><glyph unicode="ø" horiz-adv-x="556" d="M278-9q-71 0-123 31t-80 87-29 134q0 58 16 104t47 80 73 50 96 18q71 0 123-31t80-87 29-134q0-58-16-104t-47-79-73-51-96-18Zm0 65q45 0 79 22t52 64 19 101q0 91-40 139t-110 48q-46 0-79-21t-52-63-19-103q0-90 41-138t109-49ZM152-30q-7-12-18-14t-20 3-13 17 4 25l299 516q8 12 19 13t20-3 13-17-4-24L152-30Z"/><glyph unicode="ù" horiz-adv-x="561" d="M248-9q-59 0-97 21T93 77 73 184v268q0 21 10 31t30 10q20 0 30-10t11-31V185q0-64 26-95t84-32q62 0 101 42t39 110v242q0 21 10 31t31 10q19 0 29-10t11-31V35q0-42-39-42-19 0-29 11t-11 31v91l13-14q-20-59-65-90T248-9Zm1 566L148 713q-8 12-6 23t10 19 19 10 22-1 18-18l84-163q6-12 3-21t-13-13-19-4-17 12Z"/><glyph unicode="ú" horiz-adv-x="561" d="M248-9q-59 0-97 21T93 77 73 184v268q0 21 10 31t30 10q20 0 30-10t11-31V185q0-64 26-95t84-32q62 0 101 42t39 110v242q0 21 10 31t31 10q19 0 29-10t11-31V35q0-42-39-42-19 0-29 11t-11 31v91l13-14q-20-59-65-90T248-9Zm66 566q-7-10-17-11t-19 2-13 14 2 21l84 163q7 14 18 18t22 2 20-11 9-19-6-23L314 557Z"/><glyph unicode="û" horiz-adv-x="561" d="M248-9q-59 0-97 21T93 77 73 184v268q0 21 10 31t30 10q20 0 30-10t11-31V185q0-64 26-95t84-32q62 0 101 42t39 110v242q0 21 10 31t31 10q19 0 29-10t11-31V35q0-42-39-42-19 0-29 11t-11 31v91l13-14q-20-59-65-90T248-9Zm165 592q6-12 3-21t-12-14-18-3-16 12l-89 143-89-143q-6-10-15-11t-18 2-12 13 2 22l83 152q9 16 21 24t28 8q16 0 28-8t21-24l83-152Z"/><glyph unicode="ü" horiz-adv-x="561" d="M248-9q-59 0-97 21T93 77 73 184v268q0 21 10 31t30 10q20 0 30-10t11-31V185q0-64 26-95t84-32q62 0 101 42t39 110v242q0 21 10 31t31 10q19 0 29-10t11-31V35q0-42-39-42-19 0-29 11t-11 31v91l13-14q-20-59-65-90T248-9Zm121 616q-23 0-35 12t-13 34q0 22 12 34t36 13q22 0 34-12t12-35q0-22-12-34t-34-12Zm-175 0q-22 0-34 12t-13 34q0 22 12 34t35 13q23 0 35-12t12-35q0-22-12-34t-35-12Z"/><glyph unicode="ý" horiz-adv-x="514" d="M184-187q-15 0-24 8t-10 21 4 28l69 155v-35L31 436q-6 15-4 28t12 21 28 8q16 0 25-7t16-25L272 59h-27l166 402q8 18 17 25t26 7q16 0 24-8t10-20-4-28L228-155q-8-18-17-25t-27-7Zm107 743q-7-10-17-11t-19 2-13 14 2 21l84 163q7 14 18 18t22 2 20-11 9-19-6-23L291 556Z"/><glyph unicode="þ" horiz-adv-x="583" d="M116-187q-20 0-30 10t-10 31v817q0 20 10 30t30 11q19 0 30-10t11-31V371h-12q16 57 63 90t114 34q65 0 113-30t75-87 27-135q0-77-26-133t-75-88T322-9q-66 0-113 33t-64 90h12v-260q0-20-11-30t-30-11ZM305 56q46 0 79 22t52 64 19 101q0 91-40 139t-110 48q-45 0-79-21t-52-63-19-103q0-90 41-138t109-49Z"/><glyph unicode="ÿ" horiz-adv-x="514" d="M184-187q-15 0-24 8t-10 21 4 28l69 155v-35L31 436q-6 15-4 28t12 21 28 8q16 0 25-7t16-25L272 59h-27l166 402q8 18 17 25t26 7q16 0 24-8t10-20-4-28L228-155q-8-18-17-25t-27-7Zm162 793q-23 0-35 12t-13 34q0 22 12 34t36 13q22 0 34-12t12-35q0-22-12-34t-34-12Zm-175 0q-22 0-34 12t-13 34q0 22 12 34t35 13q23 0 35-12t12-35q0-22-12-34t-35-12Z"/><glyph unicode="–" horiz-adv-x="500" d="M22 240q-12 0-20 8t-9 19q0 11 8 18t21 8h456q12 0 20-7t9-19q0-11-8-19t-21-8H22Z"/><glyph unicode="—" horiz-adv-x="1000" d="M22 240q-12 0-20 8t-9 19q0 11 8 18t21 8h956q12 0 20-7t9-19q0-11-8-19t-21-8H22Z"/><glyph unicode="‘" horiz-adv-x="228" d="M105 692q10 13 20 14t18-3 9-17-9-24q-16-21-22-42t-7-40l-3 20q26 0 42-14t16-40q0-24-15-39t-39-16q-26 0-40 17t-15 51q0 21 3 43t14 46 28 44Z"/><glyph unicode="’" horiz-adv-x="228" d="M124 508q-10-13-21-14t-19 3-8 17 9 24q16 21 22 42t6 39l4-20q-26 0-41 15t-16 40q0 25 14 40t39 15q26 0 41-17t15-51q0-21-4-43t-14-46-27-44Z"/><glyph unicode="‚" horiz-adv-x="228" d="M124-95q-10-13-21-15t-19 4-8 17 9 24q16 21 22 42t6 40l4-21Q91-4 76 11T60 51q0 24 14 39t39 16q26 0 41-17t15-51q0-21-4-43t-14-46-27-44Z"/><glyph unicode="“" horiz-adv-x="394" d="M105 692q10 13 20 14t18-3 9-17-9-24q-16-21-22-42t-7-40l-3 20q26 0 42-14t16-40q0-24-15-39t-39-16q-26 0-40 17t-15 51q0 21 3 43t14 46 28 44Zm166 0q10 13 20 14t18-3 9-17-9-24q-16-21-22-42t-7-40l-3 20q26 0 42-14t16-40q0-24-15-39t-39-16q-26 0-40 17t-15 51q0 21 3 43t14 46 28 44Z"/><glyph unicode="”" horiz-adv-x="394" d="M124 508q-10-13-21-14t-19 3-8 17 9 24q16 21 22 42t6 39l4-20q-26 0-41 15t-16 40q0 25 14 40t39 15q26 0 41-17t15-51q0-21-4-43t-14-46-27-44Zm166 0q-10-13-21-14t-19 3-8 17 9 24q16 21 22 42t6 39l4-20q-26 0-41 15t-16 40q0 25 14 40t39 15q26 0 41-17t15-51q0-21-4-43t-14-46-27-44Z"/><glyph unicode="„" horiz-adv-x="394" d="M124-95q-10-13-21-15t-19 4-8 17 9 24q16 21 22 42t6 40l4-21Q91-4 76 11T60 51q0 24 14 39t39 16q26 0 41-17t15-51q0-21-4-43t-14-46-27-44Zm166 0q-10-13-21-15t-19 4-8 17 9 24q16 21 22 42t6 40l4-21q-26 0-41 15t-16 40q0 24 14 39t39 16q26 0 41-17t15-51q0-21-4-43t-14-46-27-44Z"/><glyph unicode="•" horiz-adv-x="524" d="M262 88q-49 0-90 23t-66 64-25 90q0 46 23 86t65 66 93 26q48 0 89-23t67-63 25-92q0-49-24-89t-66-64-91-24Z"/><glyph unicode="‹" horiz-adv-x="260" d="M187 89q-11-5-22-2t-18 15L65 238q-8 14-8 27t8 28l81 135q7 12 18 15t22-1q14-6 18-19t-3-28l-65-130 65-129q7-15 4-28t-18-19Z"/><glyph unicode="›" horiz-adv-x="260" d="M73 89q-14 5-17 18t3 29l65 129-65 130q-6 15-2 28t17 19q12 5 23 2t18-16l80-135q9-14 9-27t-9-28l-82-136q-6-11-17-14t-23 1Z"/></font>
</defs>
</svg>
